Telecharger Peau d'âne [DVDRiP] French

Qualité BLURAY 1080p | FRENCH | son DTS

Peau d'âne

Peau d'âne

Origine du film : Français
Réalisateur : Jacques Demy
Acteurs : Yves Pignot, Catherine Deneuve, Jean Marais
Genre : Fantastique, Comédie musicale
Durée : 1h30min
Date de sortie : 16 décembre 1970
Année de production : 1970
Distribué par : Ciné-Tamaris
Note presse : Peau d'âne 5,0/5
Note spectateurs : Peau d'âne

; »>3,5/5 (1 628)
Bande annonce :

73197739baf62567a53b8473add80b3d

19546033″>Cliquez-ici pour voir la bande annonce 73197739baf62567a53b8473add80b3d »> 19546033

73197739baf62567a53b8473add80b3d

Peau d'âne

La reine moribonde a fait promettre au roi de n’épouser qu’une femme plus belle qu’elle. Dans tout le royaume, une seule personne peut se prévaloir d’une telle beauté, sa propre fille. Revêtue d’une peau d’âne, la princesse désespérée s’enfuit du château familial.
99019″ style= »display:inline; »>

Peau d'âne

Format : MKV
Découpé avec : Winrar

Peau d'âne

Peau.D.Ane.1970.FRENCH.1080p.BluRay.x264-PHOBOS

(8956 Mo)

[Liens Interchangeables entre hébergeurs: 8x 1000 Mo + 1x 956 Mo]

Uptobox
Télécharger

Uplea
Télécharger

1fichier
Télécharger

Uploaded
Télécharger

Rapidgator
Télécharger

TurboBit
Télécharger

[ Liens Premium ]

Uptobox
Télécharger

Uplea
Télécharger

1fichier
Télécharger

Uploaded
Télécharger

TurboBit
Télécharger

NFO :

Afficher / Masquer le texte 4244af509b348b4b041714223191f127″ class= »text_spoiler » style= »display:none; »>Peau.D.Ane.1970.FRENCH.1080p.BluRay.x264-PHOBOS.zone-telechargement.com.mkv
Format : Matroska
Format version : Version 4 / Version 2
File size : 8.75 GiB
Duration : 1h 30mn
Overall bit rate : 13.9 Mbps
Encoded date : UTC 2014-10-14 00:16:15
Writing application : mkvmerge v6.5.0 (‘Isn’t she lovely’) built on Oct 20 2013 12:50:05
Writing library : Lavf55.33.100
DURATION : 01:30:17.131000000
NUMBER_OF_FRAMES : 507856
NUMBER_OF_BYTES : 1021806272
_STATISTICS_WRITING_APP : mkvmerge v7.0.0 (‘Where We Going’) 64bit built on Jun 21 2014 23:29:08
_STATISTICS_WRITING_DATE_UT : 2014-10-05 16:33:43
_STATISTICS_TAGS : BPS DURATION NUMBER_OF_FRAMES NUMBER_OF_BYTES

Video
ID : 1
Format : AVC
Format/Info : Advanced Video Codec
Format profile : [email protected]
Format settings, CABAC : Yes
Format settings, ReFrames : 4 frames
Codec ID : V_MPEG4/ISO/AVC
Duration : 1h 30mn
Bit rate : 12.4 Mbps
Width : 1 808 pixels
Height : 1 080 pixels
Display aspect ratio : 5:3
Frame rate mode : Constant
Frame rate : 23.976 fps
Color space : YUV
Chroma subsampling : 4:2:0
Bit depth : 8 bits
Scan type : Progressive
Bits/(Pixel*Frame) : 0.264
Stream size : 7.62 GiB (87%)
Writing library : x264 core 142 r2479M dd79a61
Encoding settings : cabac=1 / ref=4 / deblock=1:0:0 / analyse=0x3:0x133 / me=umh / subme=10 / psy=1 / psy_rd=1.00:0.00 / mixed_ref=1 / me_range=24 / chroma_me=1 / trellis=2 / 8x8dct=1 / cqm=0 / deadzone=21,11 / fast_pskip=1 / chroma_qp_offset=-2 / threads=12 / lookahead_threads=2 / sliced_threads=0 / nr=0 / decimate=1 / interlaced=0 / bluray_compat=0 / constrained_intra=0 / bframes=8 / b_pyramid=2 / b_adapt=2 / b_bias=0 / direct=3 / weightb=1 / open_gop=0 / weightp=2 / keyint=250 / keyint_min=23 / scenecut=40 / intra_refresh=0 / rc_lookahead=60 / rc=2pass / mbtree=1 / bitrate=12359 / ratetol=1.0 / qcomp=0.60 / qpmin=0 / qpmax=69 / qpstep=4 / cplxblur=20.0 / qblur=0.5 / ip_ratio=1.40 / aq=1:1.00
Default : Yes
Forced : No
DURATION : 01:30:17.079000000
NUMBER_OF_FRAMES : 129880
NUMBER_OF_BYTES : 8367590144
_STATISTICS_WRITING_APP : mkvmerge v7.0.0 (‘Where We Going’) 64bit built on Jun 21 2014 23:29:08
_STATISTICS_WRITING_DATE_UT : 2014-10-05 16:33:43
_STATISTICS_TAGS : BPS DURATION NUMBER_OF_FRAMES NUMBER_OF_BYTES

Audio
ID : 2
Format : DTS
Format/Info : Digital Theater Systems
Mode : 16
Format settings, Endianness : Big
Codec ID : A_DTS
Duration : 1h 30mn
Bit rate mode : Constant
Bit rate : 1 509 Kbps
Channel(s) : 6 channels
Channel positions : Front: L C R, Side: L R, LFE
Sampling rate : 48.0 KHz
Bit depth : 24 bits
Compression mode : Lossy
Stream size : 974 MiB (11%)
Language : French
Default : Yes
Forced : No

Jeux Gratuit
15354131_1854970838071206_1069261547_o.png