Telecharger Peter et Elliott le dragon [DVDRiP] French

(TRUEFRENCH = Vraie voix française)

Qualité BDRiP mkv | TRUEFRENCH

Peter et Elliott le dragon

Peter et Elliott le dragon

Origine du film : Américain
Réalisateur : Don Chaffey
Acteurs : Sean Marshall, Charlie Callas, Mickey Rooney
Genre : Aventure, Fantastique, Famille, Musical
Durée : 2h8min
Date de sortie : 13 septembre 1978
Année de production : 1977
Titre Original : Pete’s Dragon
Note spectateurs : Peter et Elliott le dragon

; »>2,9/5 (908)
Bande annonce :

0d2db01b1fd7366df76936c687cad2e4

19385118″>Cliquez-ici pour voir la bande annonce 0d2db01b1fd7366df76936c687cad2e4″> 19385118

0d2db01b1fd7366df76936c687cad2e4

Peter et Elliott le dragon

Nouvelle-Angleterre, au début du XXe siècle. Peter, un orphelin de neuf ans, s’échappe de sa famille adoptive qui le maltraite. Son seul ami, un dragon de cartoon nommé Elliott, a le pouvoir de devenir invisible quand bon lui semble. Les deux camarades arrivent dans une petite ville côtière et trouvent refuge chez le gardien du phare. Ensemble, ils vont vivre d’incroyables aventures et devront affronter le terrible Docteur Terminus qui veut mettre la main sur Elliott…
90244″ style= »display:inline; »>

Peter et Elliott le dragon

Format : MKV

Peter et Elliott le dragon

(882 Mo)

Uptobox
Télécharger

Uploaded
Télécharger

TurboBit
Télécharger

Rapidgator
Télécharger

Uplea
Télécharger

1fichier
Télécharger

NFO :

Afficher / Masquer le texte 4fb347f4a32286a1a0568c02cdb9eb71″ class= »text_spoiler » style= »display:none; »>Complete name : F:INPeter et Elliott le dragon30 – 1977 – Peter et Elliott le dragon.mkv
Format : Matroska
Format version : Version 2
File size : 883 MiB
Duration : 2h 3mn
Overall bit rate : 999 Kbps
Encoded date : UTC 2012-11-02 22:00:17
Writing application : mkvmerge v5.6.0 (‘Kenya Kane’) built on May 27 2012 16:44:04
Writing library : libebml v1.2.3 + libmatroska v1.3.0

Video
ID : 1
Format : AVC
Format/Info : Advanced Video Codec
Format profile : [email protected]
Format settings, CABAC : Yes
Format settings, ReFrames : 4 frames
Codec ID : V_MPEG4/ISO/AVC
Duration : 2h 3mn
Bit rate : 834 Kbps
Width : 1 184 pixels
Height : 720 pixels
Display aspect ratio : 1.644
Frame rate mode : Constant
Frame rate : 25.000 fps
Original frame rate : 23.976 fps
Color space : YUV
Chroma subsampling : 4:2:0
Bit depth : 8 bits
Scan type : Progressive
Bits/(Pixel*Frame) : 0.039
Stream size : 752 MiB (85%)
Writing library : x264 core 125 r2200 999b753
Encoding settings : cabac=1 / ref=3 / deblock=1:-1:-1 / analyse=0x3:0x113 / me=umh / subme=9 / psy=1 / psy_rd=0.00:0.00 / mixed_ref=1 / me_range=32 / chroma_me=1 / trellis=2 / 8x8dct=1 / cqm=0 / deadzone=21,11 / fast_pskip=0 / chroma_qp_offset=-2 / threads=12 / lookahead_threads=2 / sliced_threads=0 / nr=0 / decimate=1 / interlaced=0 / bluray_compat=0 / constrained_intra=0 / bframes=3 / b_pyramid=2 / b_adapt=2 / b_bias=0 / direct=3 / weightb=1 / open_gop=0 / weightp=2 / keyint=250 / keyint_min=25 / scenecut=40 / intra_refresh=0 / rc_lookahead=60 / rc=2pass / mbtree=1 / bitrate=834 / ratetol=1.0 / qcomp=0.60 / qpmin=10 / qpmax=51 / qpstep=4 / cplxblur=20.0 / qblur=0.5 / ip_ratio=1.40 / aq=1:1.00
Default : Yes
Forced : No

Audio
ID : 2
Format : MPEG Audio
Format version : Version 1
Format profile : Layer 3
Mode : Joint stereo
Mode extension : MS Stereo
Codec ID : A_MPEG/L3
Codec ID/Hint : MP3
Duration : 2h 3mn
Bit rate mode : Constant
Bit rate : 128 Kbps
Channel(s) : 2 channels
Sampling rate : 48.0 KHz
Compression mode : Lossy
Stream size : 113 MiB (13%)
Writing library : LAME3.98
Default : Yes
Forced : No