Télécharger Peur primale Blu-Ray 1080p/720p FRENCH

Qualité BLURAY 720p | MULTiLANGUES

Peur primale

Peur primale

Origine du film : Américain
Réalisateur : Gregory Hoblit
Acteurs : Richard Gere, Laura Linney, Edward Norton
Genre : Thriller, Drame
Durée : 2h11min
Date de sortie : 5 juin 1996
Année de production : 1996
Titre Original : Primal Fear
Distribué par : United International Pictures (UIP)
Note spectateurs : Peur primale 3,5/5 (1 604)
Bande annonce :

d339a894787e23e4887d0e3a61eacca7

19431088″>Cliquez-ici pour voir la bande annonce d339a894787e23e4887d0e3a61eacca7″> 19431088

d339a894787e23e4887d0e3a61eacca7

Peur primale

Martin Vail, brillant avocat de Chicago, aussi soucieux de sa publicité que de son talent, se porte volontaire pour défendre un jeune homme accusé du meurtre de l’archevêque Rushman, un des plus éminents dignitaires de la ville. Aaron Stampler, le présumé coupable, provincial timide et naïf, bénéficiait de la protection de l’archevêque qu’il considérait comme son père. Vail est vite convaincu de l’innocence de son client. Cependant, après certaines révélations troublantes, il sera amené a manipuler et à piéger la partie adverse.
102685″ style= »display:inline; »>

Peur primale

Format : MKV
Découpé avec : Winrar

Peur primale

Primal.Fear.1996.720p.BluRay.Multi.AC3.x264-GAiA

(6714 Mo)

[Liens Interchangeables entre hébergeurs: 6x 1000 Mo + 1x 714 Mo]

Uptobox
Télécharger

Uplea
Télécharger

1fichier
Télécharger

Uploaded
Télécharger

Rapidgator
Télécharger

TurboBit
Télécharger

[ Liens Premium ]

Uptobox
Télécharger

Uplea
Télécharger

1fichier
Télécharger

Uploaded
Télécharger

TurboBit
Télécharger

NFO :

Afficher / Masquer le texte f6f72b1b36beee8b720759473eabcf91″ class= »text_spoiler » style= »display:none; »>Primal.Fear.1996.720p.BluRay.Multi.AC3.x264-GAiA.zone-telechargement.com.mkv
Format : Matroska
Format version : Version 1
File size : 6.56 GiB
Duration : 2h 10mn
Overall bit rate : 7 196 Kbps
Movie name : Primal Fear 1996 720p BluRay Multi AC3 x264-GAÏA
Encoded date : UTC 2009-06-22 16:17:35
Writing application : mkvmerge v2.0.2 (‘You’re My Flame’) built on Feb 21 2007 23:40:55
Writing library : libebml v0.7.7 + libmatroska v0.8.1

Video
ID : 1
Format : AVC
Format/Info : Advanced Video Codec
Format profile : [email protected]
Format settings, CABAC : Yes
Format settings, ReFrames : 4 frames
Codec ID : V_MPEG4/ISO/AVC
Duration : 2h 10mn
Bit rate : 5 914 Kbps
Width : 1 280 pixels
Height : 720 pixels
Display aspect ratio : 16:9
Frame rate mode : Constant
Frame rate : 23.976 fps
Color space : YUV
Chroma subsampling : 4:2:0
Bit depth : 8 bits
Scan type : Progressive
Bits/(Pixel*Frame) : 0.268
Stream size : 5.26 GiB (80%)
Writing library : x264 core 67 r1162M f7bfcfa
Encoding settings : cabac=1 / ref=4 / deblock=1:-3:-3 / analyse=0x3:0x113 / me=umh / subme=9 / psy_rd=1.0:0.0 / mixed_ref=1 / me_range=32 / chroma_me=1 / trellis=2 / 8x8dct=1 / cqm=0 / deadzone=21,11 / chroma_qp_offset=-2 / threads=3 / nr=0 / decimate=1 / mbaff=0 / bframes=3 / b_pyramid=1 / b_adapt=2 / b_bias=0 / direct=3 / wpredb=1 / keyint=250 / keyint_min=25 / scenecut=40 / rc=2pass / bitrate=5914 / ratetol=1.0 / qcomp=0.60 / qpmin=10 / qpmax=51 / qpstep=4 / cplxblur=20.0 / qblur=0.5 / vbv_maxrate=50000 / vbv_bufsize=50000 / ip_ratio=1.40 / pb_ratio=1.30 / aq=1:1.00
Language : English
Default : Yes
Forced : No

Audio #1
ID : 2
Format : AC-3
Format/Info : Audio Coding 3
Mode extension : CM (complete main)
Format settings, Endianness : Big
Codec ID : A_AC3
Duration : 2h 10mn
Bit rate mode : Constant
Bit rate : 640 Kbps
Channel count : 6 channels
Channel positions : Front: L C R, Side: L R, LFE
Sampling rate : 48.0 KHz
Bit depth : 16 bits
Compression mode : Lossy
Stream size : 597 MiB (9%)
Language : French
Default : Yes
Forced : No

Audio #2
ID : 3
Format : AC-3
Format/Info : Audio Coding 3
Mode extension : CM (complete main)
Format settings, Endianness : Big
Codec ID : A_AC3
Duration : 2h 10mn
Bit rate mode : Constant
Bit rate : 640 Kbps
Channel count : 6 channels
Channel positions : Front: L C R, Side: L R, LFE
Sampling rate : 48.0 KHz
Bit depth : 16 bits
Compression mode : Lossy
Stream size : 597 MiB (9%)
Language : English
Default : No
Forced : No

Text #1
ID : 4
Format : UTF-8
Codec ID : S_TEXT/UTF8
Codec ID/Info : UTF-8 Plain Text
Title : French Forced
Language : French
Default : Yes
Forced : No

Text #2
ID : 5
Format : UTF-8
Codec ID : S_TEXT/UTF8
Codec ID/Info : UTF-8 Plain Text
Title : French
Language : French
Default : No
Forced : No

Jeux Gratuit
15354131_1854970838071206_1069261547_o.png