Télécharger Phenomène

(TRUEFRENCH = Vraie voix française)

Qualité DVDRiP | TRUEFRENCH

Phenomène

Phenomène

Origine du film : Américain
Réalisateur : Jon Turteltaub
Acteurs : John Travolta, Kyra Sedgwick, Forest Whitaker
Genre : Drame, Fantastique, Romance
Durée : 2h3min
Date de sortie : 18 septembre 1996
Année de production : 1996
Titre Original : Phenomenon
Distribué par : Gaumont Buena Vista International (GBVI)
Note spectateurs : Phenomène 2,8/5 (1 572)
Bande annonce :

e2db009d657dadb53ade976b0bf89cc2

19428546″>Cliquez-ici pour voir la bande annonce e2db009d657dadb53ade976b0bf89cc2″> 19428546

e2db009d657dadb53ade976b0bf89cc2

Phenomène

George Malley est le garagiste ordinaire d’une petite ville ordinaire des Etats-Unis aux habitants ordinaires. Mais le soir de son trente-septième anniversaire, cet homme à l’existence paisible est pris d’un appetit insatiable de connaissance et se découvre des pouvoirs et des facultés intellectuelles insoupçonnés. Il se lance dans d’ingénieuses expériences scientifiques. Ce qui provoque méfiance et incompréhension autour de lui. Seule Lace, une jeune femme qui s’est récemment installée dans la ville avec ses deux enfants, semble accepter cette métamorphose.
95646″ style= »display:inline; »>

Phenomène

Format : MP4

Phenomène

Phenomene DVDRIP x264 AAC VFF truefrench

(920 Mo)

Uptobox
Télécharger

Uploaded
Télécharger

TurboBit
Télécharger

Rapidgator
Télécharger

Uplea
Télécharger

1fichier
Télécharger

NFO :

Afficher / Masquer le texte 1a09979a02fa2d8c943a57edbf4e2598″ class= »text_spoiler » style= »display:none; »>General
Complete name : Phenomene [HD576].mp4
Format : MPEG-4
Format profile : Base Media / Version 2
Codec ID : mp42
File size : 902 MiB
Duration : 1h 58mn
Overall bit rate mode : Variable
Overall bit rate : 1 065 Kbps
Writing application : HandBrake 0.10.0 2014112200

Video
ID : 1
Format : AVC
Format/Info : Advanced Video Codec
Format profile : [email protected]
Format settings, CABAC : Yes
Format settings, ReFrames : 4 frames
Codec ID : avc1
Codec ID/Info : Advanced Video Coding
Duration : 1h 58mn
Bit rate : 895 Kbps
Width : 720 pixels
Height : 576 pixels
Display aspect ratio : 16:9
Frame rate mode : Constant
Frame rate : 25.000 fps
Standard : PAL
Color space : YUV
Chroma subsampling : 4:2:0
Bit depth : 8 bits
Scan type : Progressive
Bits/(Pixel*Frame) : 0.086
Stream size : 759 MiB (84%)
Writing library : x264 core 142 r2479 dd79a61
Encoding settings : cabac=1 / ref=3 / deblock=1:0:0 / analyse=0x3:0x113 / me=hex / subme=7 / psy=1 / psy_rd=1.00:0.00 / mixed_ref=1 / me_range=16 / chroma_me=1 / trellis=1 / 8x8dct=1 / cqm=0 / deadzone=21,11 / fast_pskip=1 / chroma_qp_offset=-2 / threads=6 / lookahead_threads=1 / sliced_threads=0 / nr=0 / decimate=1 / interlaced=0 / bluray_compat=0 / constrained_intra=0 / bframes=3 / b_pyramid=2 / b_adapt=1 / b_bias=0 / direct=1 / weightb=1 / open_gop=0 / weightp=2 / keyint=250 / keyint_min=25 / scenecut=40 / intra_refresh=0 / rc_lookahead=40 / rc=crf / mbtree=1 / crf=20.0 / qcomp=0.60 / qpmin=0 / qpmax=69 / qpstep=4 / vbv_maxrate=62500 / vbv_bufsize=78125 / crf_max=0.0 / nal_hrd=none / filler=0 / ip_ratio=1.40 / aq=1:1.00
Color primaries : BT.470-6 System B, BT.470-6 System G, BT.601-6 625, BT.1358 625, BT.1700 625 PAL, BT.1700 625 SECAM
Transfer characteristics : BT.709-5, BT.1361
Matrix coefficients : BT.601-6 525, BT.1358 525, BT.1700 NTSC, SMPTE 170M

Audio
ID : 2
Format : AAC
Format/Info : Advanced Audio Codec
Format profile : LC
Codec ID : 40
Duration : 1h 58mn
Bit rate mode : Variable
Bit rate : 160 Kbps
Channel(s) : 2 channels
Channel positions : Front: L R
Sampling rate : 48.0 KHz
Compression mode : Lossy
Stream size : 136 MiB (15%)
Title : Stereo
Language : French

Text #1
ID : 3
Format : mp4s
Codec ID : E0
Duration : 1h 54mn
Bit rate mode : Variable
Bit rate : 3 668 bps
Stream size : 3.00 MiB (0%)
Language : French

Text #2
ID : 4
Format : Apple text
Codec ID : text
Duration : 1h 58mn
Bit rate mode : Variable
Bit rate : 1 bps
Stream size : 471 Bytes (0%)
Language : English

Jeux Gratuit
15354131_1854970838071206_1069261547_o.png