Telecharger Philomena [BLURAY 720p] French

BLURAY 720p | FRENCH

Philomena

Philomena

Philomena

Origine du film : Britannique, Français, Américain
Réalisateur : Stephen Frears
Acteurs : Judi Dench, Steve Coogan, Sophie Kennedy Clark
Genre : Drame
Durée : 1h38min
Date de sortie : 8 janvier 2014
Année de production : 2013
Distribué par : Pathé Distribution
Note presse : Philomena 3,8/5
Note spectateurs : Philomena

; »>4,2/5 (1 946)
Bande annonce :

77e71e365785754fe7284476f473140b

19536976″>Cliquez-ici pour voir la bande annonce 77e71e365785754fe7284476f473140b »> 19536976

77e71e365785754fe7284476f473140b

Philomena

Irlande, 1952. Philomena Lee, encore adolescente, tombe enceinte. Rejetée par sa famille, elle est envoyée au couvent de Roscrea. En compensation des soins prodigués par les religieuses avant et pendant la naissance, elle travaille à la blanchisserie, et n’est autorisée à voir son fils, Anthony, qu’une heure par jour. À l’âge de trois ans, il lui est arraché pour être adopté par des Américains. Pendant des années, Philomena essaiera de le retrouver.Quand, cinquante ans plus tard, elle rencontre Martin Sixmith, journaliste désabusé, elle lui raconte son histoire, et ce dernier la persuade de l’accompagner aux Etats-Unis à la recherche d’Anthony.
50632″ style= »display:inline; »>

Philomena

Qualité : BLURAY 720p
Format : MKV
Langue : Français
Sous-titre : Français
Découpé avec : Winrar
Nombre de fichiers : 4 Fichiers
Taille des fichiers : 1000 Mo + 732 Mo

Philomena

[4 Liens Interchangeables : 3 x 1000 Mo + 1 x 732 Mo]

Philomena.2013.FRENCH.720p.BluRay.AC3.x264 ( 3749 Mo)

Uptobox
Télécharger

Uplea
Upload en panne…

1fichier
Télécharger

Uploaded
Télécharger

Rapidgator
Télécharger

TurboBit
Télécharger

[1 Lien PREMIUM : 1 x 3.64 GB]

Uptobox
Télécharger

Uplea
Upload en panne…

1fichier
Télécharger

TurboBit
Télécharger

NFO :

Afficher / Masquer le texte 9b9e375ec69473c9a1b74b92897f1e47″ class= »text_spoiler » style= »display:none; »>General
Unique ID : 172011846084255814695222484179965939707 (0x816846C9C5AFD6F3985D3211233F8FFB)
Complete name : Philomena.2013.FRENCH.720p.BluRay.AC3.x264.mkv
Format : Matroska
Format version : Version 4 / Version 2
File size : 3.64 GiB
Duration : 1h 37mn
Overall bit rate : 5 334 Kbps
Encoded date : UTC 2014-04-19 10:19:46
Writing application : mkvmerge v6.8.0 (‘Theme for Great Cities’) 32bit built on Mar 2 2014 21:27:07
Writing library : libebml v1.3.0 + libmatroska v1.4.1

Video
ID : 1
Format : AVC
Format/Info : Advanced Video Codec
Format profile : [email protected]
Format settings, CABAC : Yes
Format settings, ReFrames : 5 frames
Codec ID : V_MPEG4/ISO/AVC
Duration : 1h 37mn
Bit rate : 4 892 Kbps
Width : 1 280 pixels
Height : 696 pixels
Display aspect ratio : 1.85:1
Frame rate mode : Constant
Frame rate : 23.976 fps
Color space : YUV
Chroma subsampling : 4:2:0
Bit depth : 8 bits
Scan type : Progressive
Bits/(Pixel*Frame) : 0.229
Stream size : 3.27 GiB (90%)
Title : Philomena.2013.FRENCH.720p.BluRay.AC3.x264
Writing library : x264 core 142 r2389 956c8d8
Encoding settings : cabac=1 / ref=5 / deblock=1:-3:-3 / analyse=0x3:0x113 / me=umh / subme=8 / psy=1 / psy_rd=1.00:0.00 / mixed_ref=1 / me_range=16 / chroma_me=1 / trellis=1 / 8x8dct=1 / cqm=0 / deadzone=21,11 / fast_pskip=1 / chroma_qp_offset=-2 / threads=6 / lookahead_threads=1 / sliced_threads=0 / nr=0 / decimate=1 / interlaced=0 / bluray_compat=0 / constrained_intra=0 / bframes=3 / b_pyramid=2 / b_adapt=2 / b_bias=0 / direct=3 / weightb=1 / open_gop=0 / weightp=2 / keyint=240 / keyint_min=24 / scenecut=40 / intra_refresh=0 / rc_lookahead=50 / rc=2pass / mbtree=1 / bitrate=4892 / ratetol=1.0 / qcomp=0.60 / qpmin=0 / qpmax=69 / qpstep=4 / cplxblur=20.0 / qblur=0.5 / ip_ratio=1.40 / aq=1:1.00
Default : Yes
Forced : Yes

Audio
ID : 2
Format : AC-3
Format/Info : Audio Coding 3
Mode extension : CM (complete main)
Format settings, Endianness : Big
Codec ID : A_AC3
Duration : 1h 37mn
Bit rate mode : Constant
Bit rate : 448 Kbps
Channel(s) : 6 channels
Channel positions : Front: L C R, Side: L R, LFE
Sampling rate : 48.0 KHz
Bit depth : 16 bits
Compression mode : Lossy
Stream size : 313 MiB (8%)
Title : AC3 5.1 @ 448 Kbps
Language : French
Default : Yes
Forced : Yes

Menu
00:00:00.000 : en:00:00:00.000
00:03:31.125 : en:00:03:31.125
00:11:02.333 : en:00:11:02.333
00:21:31.500 : en:00:21:31.500
00:27:02.167 : en:00:27:02.167
00:32:30.667 : en:00:32:30.667
00:35:58.833 : en:00:35:58.833
00:43:30.875 : en:00:43:30.875
00:49:11.458 : en:00:49:11.458
00:56:54.458 : en:00:56:54.458
01:01:22.458 : en:01:01:22.458
01:05:04.833 : en:01:05:04.833
01:10:30.750 : en:01:10:30.750
01:16:36.875 : en:01:16:36.875
01:22:44.833 : en:01:22:44.833
01:32:59.042 : en:01:32:59.042

Jeux Gratuit
15354131_1854970838071206_1069261547_o.png