Telecharger Piégé [BLURAY 720p] French

BLURAY 720p | FRENCH | DTS

Piégé

Piégé

Piégé

Origine du film : Français, Italien
Réalisateur : Yannick Saillet
Acteurs : Pascal Elbé, Laurent Lucas, Caroline Bal
Genre : Guerre
Durée : 1h18min
Date de sortie : 15 janvier 2014
Année de production : 2013
Distribué par : Bellissima Films
Note presse : Piégé 2,4/5
Note spectateurs : Piégé

; »>2,1/5 (221)
Bande annonce :

9ef0db8378f4c30a9b94009a80a081ce

19540125″>Cliquez-ici pour voir la bande annonce 9ef0db8378f4c30a9b94009a80a081ce »> 19540125

9ef0db8378f4c30a9b94009a80a081ce

Piégé

Après avoir survécu à une attaque éclair, le sergent Denis Quillard pose le pied sur une mine russe à double détente. Seul rescapé de sa patrouille, coincé au milieu du désert afghan, il doit faire face à cette situation et affronter ses doutes comme ses peurs. L’ennemi se rapproche. Il a quelques heures pour s’en sortir. Le compte à rebours a commencé.
52470″ style= »display:inline; »>

Piégé

Qualité : BLURAY 720p
Format : MKV
Langue : Français
Nombre de fichiers : 4 Fichiers
Taille des fichiers : 1000 Mo + 335 Mo

Piégé

Ps: Les liens sont interchangeables, prenez une partie de chaque hébergeur pour télécharger plusieurs fichiers en même temps.

Piege.2014.FRENCH.720p.BluRay.x264-ROUGH ( 3335 Mo)

Uptobox
Télécharger

Uplea
Télécharger

1fichier
Télécharger

Uploaded
Télécharger

Rapidgator
Télécharger

TurboBit
Télécharger

1 Lien Premium

Uptobox
Télécharger

1fichier
Télécharger

Uploaded
Télécharger

TurboBit
Télécharger

NFO :

Afficher / Masquer le texte 25b578c03d8c031453db7883ff84b275″ class= »text_spoiler » style= »display:none; »>General
Unique ID : 238867644391081588517246934960002609767 (0xB3B43C22EAF1A7599EA7CE935B08B267)
Complete name : piege.2014.french.720p.bluray.x264-rough.mkv
Format : Matroska
Format version : Version 4 / Version 2
File size : 3.28 GiB
Duration : 1h 14mn
Overall bit rate : 6 303 Kbps
Encoded date : UTC 2014-05-28 17:42:42
Writing application : mkvmerge v6.9.1 (‘Blue Panther’) 64bit built on Apr 18 2014 18:23:38
Writing library : libebml v1.3.0 + libmatroska v1.4.1

Video
ID : 1
Format : AVC
Format/Info : Advanced Video Codec
Format profile : [email protected]
Format settings, CABAC : Yes
Format settings, ReFrames : 5 frames
Codec ID : V_MPEG4/ISO/AVC
Duration : 1h 14mn
Bit rate : 4 795 Kbps
Width : 1 280 pixels
Height : 536 pixels
Display aspect ratio : 2.40:1
Frame rate mode : Constant
Frame rate : 25.000 fps
Color space : YUV
Chroma subsampling : 4:2:0
Bit depth : 8 bits
Scan type : Progressive
Bits/(Pixel*Frame) : 0.280
Stream size : 2.43 GiB (74%)
Writing library : x264 core 142 r2431 ac76440
Encoding settings : cabac=1 / ref=5 / deblock=1:0:0 / analyse=0x3:0x113 / me=umh / subme=7 / psy=1 / psy_rd=1.00:0.00 / mixed_ref=1 / me_range=16 / chroma_me=1 / trellis=1 / 8x8dct=1 / cqm=0 / deadzone=21,11 / fast_pskip=0 / chroma_qp_offset=-2 / threads=12 / lookahead_threads=2 / sliced_threads=0 / nr=0 / decimate=1 / interlaced=0 / bluray_compat=0 / constrained_intra=0 / bframes=3 / b_pyramid=2 / b_adapt=1 / b_bias=0 / direct=1 / weightb=1 / open_gop=0 / weightp=2 / keyint=250 / keyint_min=25 / scenecut=40 / intra_refresh=0 / rc_lookahead=40 / rc=2pass / mbtree=1 / bitrate=4795 / ratetol=1.0 / qcomp=0.60 / qpmin=0 / qpmax=69 / qpstep=4 / cplxblur=20.0 / qblur=0.5 / ip_ratio=1.40 / aq=1:1.00
Language : English
Default : Yes
Forced : No

Audio
ID : 2
Format : DTS
Format/Info : Digital Theater Systems
Mode : 16
Format settings, Endianness : Big
Codec ID : A_DTS
Duration : 1h 14mn
Bit rate mode : Constant
Bit rate : 1 509 Kbps
Channel(s) : 6 channels
Channel positions : Front: L C R, Side: L R, LFE
Sampling rate : 48.0 KHz
Bit depth : 24 bits
Compression mode : Lossy
Stream size : 803 MiB (24%)
Title : DTS 5.1
Language : French
Default : Yes
Forced : No

Menu
00:00:00.000 : en:00:00:00.000
00:03:11.200 : en:00:03:11.200
00:10:28.520 : en:00:10:28.520
00:22:42.520 : en:00:22:42.520
00:38:46.920 : en:00:38:46.920
00:49:55.240 : en:00:49:55.240
00:56:33.640 : en:00:56:33.640
01:04:16.640 : en:01:04:16.640
01:10:25.320 : en:01:10:25.320