Telecharger Piégée [BLURAY 720p] French

BLURAY 720p | MULTiLANGUES | DTS

Piégée

Piégée

Piégée

Origine du film : Américain
Réalisateur : Steven Soderbergh
Acteurs : Gina Carano, Channing Tatum, Michael Fassbender
Genre : Thriller, Action
Date de sortie : 11 juillet 2012
Année de production : 2011
Titre Original : Haywire
Distribué par : UGC Distribution
Bande annonce :

a6fcc8977b006f93e5dc004c0c65ebd6

19275219″>Cliquez-ici pour voir la bande annonce a6fcc8977b006f93e5dc004c0c65ebd6″> 19275219

a6fcc8977b006f93e5dc004c0c65ebd6

Piégée

Mallory Kane, une ancienne marine à la charge d'une compagnie indépendante regroupant d'irréprochables assassins, doit escorter, avec trois de sesncollègues, un journaliste chinois en otage. L'opération semble bien se dérouler, mais, au moment où on lui assigne une nouvelle mission avec un autre agent, appelé Paul, les choses se gâtent. Ce dernier tente de la tuer et, bien vite, elle réalise qu'un nombre important de meurtriers chevronnés sontbà sa poursuite pour une raison qu'elle ignore. Même le chef de l'entreprise pour laquelle elle travaille, qui s'avère être son ex-petit copain, semble se retourner contre elle.

Nom de la release : Haywire.2012.720p.Multi.Bluray.DTS.x264-KASH 12076″ style= »display:inline; »>

Qualité : BLURAY 720p
Format : MKV
Langue : Multilangage
Sous-titre : Multi
Nombre de fichiers : 5 Fichiers
Taille totale : 4.8 Go

[Liens Interchangeables]

Ps: Vous pouvez prendre une partie sur chaque hébergeur, pour télécharger plusieurs fichiers en même temps. smile

1fichier.com
Telecharger

Uptobox.com
Telecharger

Free
Telecharger

Uploaded.net
Telecharger

Rapidgator.net
Telecharger

TurboBit.net
Telecharger

NFO :

Afficher / Masquer le texte 0eaf50de282a192b8b202db19f528972″ class= »text_spoiler » style= »display:none; »>General
Complete name : Haywire 2012 720p Multi Bluray DTS x264-KASH.mkv.mkv
Format : Matroska
Format version : Version 2
File size : 4.72 GiB
Duration : 1h 32mn
Overall bit rate : 7 274 Kbps
Writing application : mkvmerge v5.5.0 ('Healer') built on Apr 6 2012 21:43:24
Writing library : libebml v1.2.3 libmatroska v1.3.0

Video
ID : 1
Format : AVC
Format/Info : Advanced Video Codec
Format profile : [email protected]
Format settings, CABAC : Yes
Format settings, ReFrames : 4 frames
Codec ID : V_MPEG4/ISO/AVC
Duration : 1h 32mn
Bit rate : 5 316 Kbps
Width : 1 280 pixels
Height : 720 pixels
Display aspect ratio : 16:9
Frame rate : 23.976 fps
Color space : YUV
Chroma subsampling : 4:2:0
Bit depth : 8 bits
Scan type : Progressive
Bits/(Pixel*Frame) : 0.241
Stream size : 3.35 GiB (71%)
Title : Haywire 2012 720p Multi Bluray DTS x264-KASH.mkv
Writing library : x264 core 122 r2184 5c85e0a

Encoding settings : cabac=1 / ref=4 / deblock=1:-3:-3 / analyse=0x3:0x113 / me=umh / subme=11 / psy=1 / psy_rd=0.99:0.00 / mixed_ref=1 / me_range=64 / chroma_me=1 / trellis=2 / 8x8dct=1 / cqm=0 / deadzone=6,6 / fast_pskip=0 / chroma_qp_offset=-2 / threads=12 / sliced_threads=0 / nr=0 / decimate=0 / interlaced=0 / bluray_compat=0 / constrained_intra=0 / bframes=5 / b_pyramid=2 / b_adapt=2 / b_bias=0 / direct=3 / weightb=1 / open_gop=0 / weightp=2 / keyint=240 / keyint_min=23 / scenecut=40 / intra_refresh=0 / rc_lookahead=240 / rc=2pass / mbtree=1 / bitrate=5316 / ratetol=1.0 / qcomp=0.60 / qpmin=0 / qpmax=69 / qpstep=4 / cplxblur=20.0 / qblur=0.5 / vbv_maxrate=50000 / vbv_bufsize=50000 / nal_hrd=none / ip_ratio=1.40 / aq=2:1.00

Color primaries : BT.709-5, BT.1361, IEC 61966-2-4, SMPTE RP177
Transfer characteristics : BT.709-5, BT.1361
Matrix coefficients : BT.709-5, BT.1361, IEC 61966-2-4 709, SMPTE RP177

x264 [info]: frame I:1043 Avg QP:12.00 size:132014
x264 [info]: frame P:27651 Avg QP:13.63 size: 59678
x264 [info]: frame B:104909 Avg QP:16.22 size: 18244

Audio #1
ID : 2
Format : AC-3
Format/Info : Audio Coding 3
Mode extension : CM (complete main)
Codec ID : A_AC3
Duration : 1h 32mn
Bit rate mode : Constant
Bit rate : 448 Kbps
Channel(s) : 6 channels
Channel positions : Front: L C R, Side: L R, LFE
Sampling rate : 48.0 KHz
Bit depth : 16 bits
Compression mode : Lossy
Stream size : 298 MiB (6%)
Title : AC3 5.1 FR @448 kbps
Language : French
Default : Yes
Forced : No

Audio #2
ID : 3
Format : DTS
Format/Info : Digital Theater Systems
Codec ID : A_DTS
Duration : 1h 32mn
Bit rate mode : Constant
Bit rate : 1 510 Kbps
Channel(s) : 6 channels
Channel positions : Front: L C R, Side: L R, LFE
Sampling rate : 48.0 KHz
Bit depth : 24 bits
Compression mode : Lossy
Stream size : 1 003 MiB (21%)
Title : DTS 5.1 EN @1510 kbps
Default : No
Forced : No

Text #1
ID : 4
Format : UTF-8
Codec ID : S_TEXT/UTF8
Codec ID/Info : UTF-8 Plain Text
Title : Sub Forced French
Language : French
Default : Yes
Forced : No

Text #2
ID : 5
Format : UTF-8
Codec ID : S_TEXT/UTF8
Codec ID/Info : UTF-8 Plain Text
Title : Sub Hearing Impaired English
Language : English
Default : No
Forced : No

Text #3
ID : 6
Format : UTF-8
Codec ID : S_TEXT/UTF8
Codec ID/Info : UTF-8 Plain Text
Title : Sub Full English
Language : English
Default : No
Forced : No