Telecharger Pioneer [BLURAY 720p] French

Qualité BLURAY 720p | MULTiLANGUES

Pioneer

Pioneer

Origine du film : Norvégien, Allemand, Français, Suédois, Finlandais
Réalisateur : Erik Skjoldbjaerg
Acteurs : Aksel Hennie, Wes Bentley, Stephanie Sigman
Genre : Thriller
Durée : 1h46min
Date de sortie : 28 janvier 2015
Année de production : 2013
Distribué par : KMBO
Note presse : Pioneer 2,9/5
Note spectateurs : Pioneer

; »>2,6/5 (74)
Bande annonce :

9d2d833f01eadcacf60814cdf6f62056

19550117″>Cliquez-ici pour voir la bande annonce 9d2d833f01eadcacf60814cdf6f62056″> 19550117

9d2d833f01eadcacf60814cdf6f62056

Pioneer

1980, Norvège. Un gigantesque gisement de pétrole est découvert dans les profondeurs des fonds marins. L’État norvégien collabore avec les États-Unis pour débuter l’extraction du pétrole. Petter et son frère font partie des plongeurs envoyés dans les eaux abyssales pour cette mission. Lors de l’une de leurs descentes, un étrange accident arrive à l’un d’eux. Commence alors une incroyable quête de vérité.
89537″ style= »display:inline; »>

Pioneer

Format : MKV
Découpé avec : Winrar
Sous-titres : Forcé pour les passages en langue étrangère.

Pioneer

Pioneer.2013.MULTI.720p.BluRay.x264-ONLY

(5288 Mo)

[Liens Interchangeables entre hébergeurs: 5x 1000 Mo + 1x 288 Mo]

Uptobox
Télécharger

Uplea
Télécharger

1fichier
Télécharger

Uploaded
Télécharger

Rapidgator
Télécharger

TurboBit
Télécharger

[Liens PREMIUM]

Uptobox
Télécharger

Uplea
Télécharger

1fichier
Télécharger

Uploaded
Partie 1
Partie 2

Rapidgator
Partie 1
Partie 2

TurboBit
Partie 1
Partie 2

NFO :

Afficher / Masquer le texte 76384c4eb39993ee6ba8313c0f407266″ class= »text_spoiler » style= »display:none; »>General
Format : Matroska
Format version : Version 4 / Version 2
File size : 5.16 GiB
Duration : 1h 51mn
Overall bit rate : 6 644 Kbps
Movie name : HAERVER @ TEAM-ONLY
Encoded date : UTC 2015-06-28 17:51:47
Writing application : mkvmerge v7.7.0 (‘Six Voices’) 64bit built on Mar 1 2015 01:50:05
Writing library : Lavf56.4.101
DURATION : 01:51:17.248000000
NUMBER_OF_FRAMES : 208664
NUMBER_OF_BYTES : 373925888
_STATISTICS_WRITING_APP : mkvmerge v7.7.0 (‘Six Voices’) 64bit built on Mar 1 2015 01:50:05
_STATISTICS_WRITING_DATE_UTC : 2015-06-28 17:51:47
_STATISTICS_TAGS : BPS DURATION NUMBER_OF_FRAMES NUMBER_OF_BYTES

Video
ID : 1
Format : AVC
Format/Info : Advanced Video Codec
Format profile : [email protected]
Format settings, CABAC : Yes
Format settings, ReFrames : 12 frames
Codec ID : V_MPEG4/ISO/AVC
Duration : 1h 51mn
Bit rate : 4 700 Kbps
Width : 1 280 pixels
Height : 532 pixels
Display aspect ratio : 2.40:1
Frame rate mode : Constant
Frame rate : 24.000 fps
Color space : YUV
Chroma subsampling : 4:2:0
Bit depth : 8 bits
Scan type : Progressive
Bits/(Pixel*Frame) : 0.288
Stream size : 3.54 GiB (69%)
Writing library : x264 core 142 r2491 24e4fed
Encoding settings : cabac=1 / ref=12 / deblock=1:-3:-3 / analyse=0x3:0x133 / me=umh / subme=10 / psy=1 / psy_rd=0.98:0.02 / mixed_ref=1 / me_range=64 / chroma_me=1 / trellis=2 / 8x8dct=1 / cqm=0 / deadzone=6,6 / fast_pskip=0 / chroma_qp_offset=-3 / threads=18 / lookahead_threads=3 / sliced_threads=0 / nr=0 / decimate=0 / interlaced=0 / bluray_compat=0 / constrained_intra=0 / bframes=8 / b_pyramid=2 / b_adapt=2 / b_bias=0 / direct=3 / weightb=1 / open_gop=0 / weightp=2 / keyint=250 / keyint_min=24 / scenecut=40 / intra_refresh=0 / rc_lookahead=60 / rc=2pass / mbtree=1 / bitrate=4700 / ratetol=1.0 / qcomp=0.65 / qpmin=0 / qpmax=69 / qpstep=4 / cplxblur=20.0 / qblur=0.5 / ip_ratio=1.10 / aq=1:0.50
Default : Yes
Forced : No
DURATION : 01:51:14.000000000
NUMBER_OF_FRAMES : 160176
NUMBER_OF_BYTES : 3910660906
_STATISTICS_WRITING_APP : mkvmerge v7.7.0 (‘Six Voices’) 64bit built on Mar 1 2015 01:50:05
_STATISTICS_WRITING_DATE_UTC : 2015-06-28 17:51:47
_STATISTICS_TAGS : BPS DURATION NUMBER_OF_FRAMES NUMBER_OF_BYTES
Color primaries : BT.709
Transfer characteristics : BT.709
Matrix coefficients : BT.709

Audio #1
ID : 2
Format : AC-3
Format/Info : Audio Coding 3
Mode extension : CM (complete main)
Format settings, Endianness : Big
Codec ID : A_AC3
Duration : 1h 51mn
Bit rate mode : Constant
Bit rate : 448 Kbps
Channel(s) : 6 channels
Channel positions : Front: L C R, Side: L R, LFE
Sampling rate : 48.0 KHz
Bit depth : 16 bits
Compression mode : Lossy
Delay relative to video : -59ms
Stream size : 357 MiB (7%)
Title : FRANCAIS AC3 5.1 @ 448 KBPS
Language : French
Default : Yes
Forced : No

Audio #2
ID : 3
Format : DTS
Format/Info : Digital Theater Systems
Mode : 16
Format settings, Endianness : Big
Codec ID : A_DTS
Duration : 1h 51mn
Bit rate mode : Constant
Bit rate : 1 509 Kbps
Channel(s) : 6 channels
Channel positions : Front: L C R, Side: L R, LFE
Sampling rate : 48.0 KHz
Bit depth : 24 bits
Compression mode : Lossy
Delay relative to video : -83ms
Stream size : 1.17 GiB (23%)
Title : NORWEGIAN DTS-HD MA 7.1 @ 5100 KBPS
Language : Norwegian
Default : No
Forced : No

Text
ID : 4
Format : UTF-8
Codec ID : S_TEXT/UTF8
Codec ID/Info : UTF-8 Plain Text
Title : FRANCAIS COMPLETS
Language : French
Default : No
Forced : No

Menu
00:00:00.000 : en:00:00:00.000
00:08:49.750 : en:00:08:49.750
00:20:23.583 : en:00:20:23.583
00:28:24.042 : en:00:28:24.042
00:38:57.833 : en:00:38:57.833
00:49:50.333 : en:00:49:50.333
01:02:21.458 : en:01:02:21.458
01:10:53.083 : en:01:10:53.083
01:18:03.125 : en:01:18:03.125
01:28:41.250 : en:01:28:41.250
01:38:23.000 : en:01:38:23.000
01:44:53.125 : en:01:44:53.125

Jeux Gratuit
15354131_1854970838071206_1069261547_o.png