Telecharger Pirates des Caraïbes : la Fontaine de Jouvence [BLURAY 720p] French

(TRUEFRENCH = Vraie voix française)

BLURAY 720p | TRUEFRENCH | DTS

Pirates des Caraïbes : la Fontaine de Jouvence

Pirates des Caraïbes : la Fontaine de Jouvence

Pirates des Caraïbes : la Fontaine de Jouvence

Origine du film : Américain
Réalisateur : Rob Marshall
Acteurs : Johnny Depp, Penélope Cruz, Geoffrey Rush
Genre : Aventure
Durée : 02h20min
Date de sortie : 18 mai 2011
Année de production : 2011
Titre Original : Pirates of the Caribbean: On Stranger Tides
Distribué par : The Walt Disney Company France
Note presse : Pirates des Caraïbes : la Fontaine de Jouvence 2,5/5
Note spectateurs : Pirates des Caraïbes : la Fontaine de Jouvence 3,4/5 (8477 notes)
Bande annonce : Cliquez ici pour visualiser la bande annonce
Bande annonce :

8ccbaea14aeb40c2e2ba3c3a56e564c4

19205644″>Cliquez-ici pour voir la bande annonce 8ccbaea14aeb40c2e2ba3c3a56e564c4″> 19205644

8ccbaea14aeb40c2e2ba3c3a56e564c4

Pirates des Caraïbes : la Fontaine de Jouvence

Dans cette histoire pleine d’action, où vérité, trahison, jeunesse éternelle et mort forment un cocktail explosif, le capitaine Jack Sparrow retrouve une femme qu’il a connue autrefois. Leurs liens sont-ils faits d’amour ou cette femme n’est-elle qu’une aventurière sans scrupules qui cherche à l’utiliser pour découvrir la légendaire Fontaine de Jouvence ? Lorsqu’elle l’oblige à embarquer à bord du Queen Anne’s Revenge, le bateau du terrible pirate Barbe-Noire, Jack ne sait plus ce qu’il doit craindre le plus : le redoutable maître du bateau ou cette femme surgie de son passé…

Nom de la release : Pirates.Of.The.Caribbean.On.Stranger.Tides.2011.TRUEFRENCH.720p.BluRay.x264-SLiMHD 7107″ style= »display:inline; »>

Qualité : BLURAY 720p
Format : MKV
Langue : Français
Découpé avec : Winrar
Nombre de fichiers : 7 Fichiers
Taille des fichiers : 1000 Mo 706 Mo
Taille totale : 6706 Mo

[7 Liens Interchangeables : 6 x 1000 Mo 1 x 706 Mo]

1fichier
Télécharger

Uptobox
Télécharger

Free
Télécharger

Uploaded
Télécharger

Rapidgator
Télécharger

TurboBit
Télécharger

[2 Liens PREMIUM : 1 x 3.50 GB 1 x 3.04 GB]

Uploaded
Partie 1
Partie 2

[1 Lien PREMIUM : 1 x 6.54 GB]

1fichier
Télécharger

Uptobox
Télécharger

TurboBit
Télécharger

Afficher / Masquer le texte b2a3fda294187e79eb84d4c5a6ac9fef » class= »text_spoiler » style= »display:none; »>
General
Unique ID : 218778112281911363997654804966927510458 (0xA49721BB27F28264B82B81DE17342BBA)
Complete name : slimhd-potcost-720ptf-www.Zone-Telechargement.com.mkv
Format : Matroska
Format version : Version 2
File size : 6.55 GiB
Duration : 2h 16mn
Overall bit rate : 6 874 Kbps
Encoded date : UTC 2011-09-03 03:43:37
Writing application : mkvmerge v4.3.0 ('Escape from the Island') built on Sep 5 2010 10:30:51
Writing library : libebml v1.0.0 libmatroska v1.0.0

Video
ID : 1
Format : AVC
Format/Info : Advanced Video Codec
Format profile : [email protected]
Format settings, CABAC : Yes
Format settings, ReFrames : 5 frames
Codec ID : V_MPEG4/ISO/AVC
Duration : 2h 16mn
Bit rate : 5 364 Kbps
Width : 1 280 pixels
Height : 536 pixels
Display aspect ratio : 2.40:1
Frame rate mode : Constant
Frame rate : 23.976 fps
Color space : YUV
Chroma subsampling : 4:2:0
Bit depth : 8 bits
Scan type : Progressive
Bits/(Pixel*Frame) : 0.326
Stream size : 4.98 GiB (76%)
Writing library : x264 core 116 r2057 0ba8a9c
Encoding settings : cabac=1 / ref=5 / deblock=1:-1:-1 / analyse=0x3:0x113 / me=umh / subme=7 / psy=1 / psy_rd=1.00:0.00 / mixed_ref=1 / me_range=16 / chroma_me=1 / trellis=1 / 8x8dct=1 / cqm=0 / deadzone=21,11 / fast_pskip=1 / chroma_qp_offset=-2 / threads=12 / sliced_threads=0 / nr=0 / decimate=1 / interlaced=0 / bluray_compat=0 / constrained_intra=0 / bframes=3 / b_pyramid=2 / b_adapt=2 / b_bias=0 / direct=3 / weightb=1 / open_gop=0 / weightp=2 / keyint=250 / keyint_min=23 / scenecut=40 / intra_refresh=0 / rc_lookahead=40 / rc=2pass / mbtree=1 / bitrate=5364 / ratetol=1.0 / qcomp=0.60 / qpmin=0 / qpmax=69 / qpstep=4 / cplxblur=20.0 / qblur=0.5 / vbv_maxrate=50000 / vbv_bufsize=50000 / nal_hrd=none / ip_ratio=1.40 / aq=1:1.00
Language : English
Default : Yes
Forced : Yes

Audio
ID : 2
Format : DTS
Format/Info : Digital Theater Systems
Mode : 16
Format settings, Endianness : Big
Codec ID : A_DTS
Duration : 2h 16mn
Bit rate mode : Constant
Bit rate : 1 509 Kbps
Channel(s) : 6 channels
Channel positions : Front: L C R, Side: L R, LFE
Sampling rate : 48.0 KHz
Bit depth : 24 bits
Compression mode : Lossy
Stream size : 1.44 GiB (22%)
Title : DTS TF 1510 kbps
Language : French
Default : Yes
Forced : No

Text
ID : 3
Format : UTF-8
Codec ID : S_TEXT/UTF8
Codec ID/Info : UTF-8 Plain Text
Title : FR Forced
Language : French
Default : Yes
Forced : Yes

Jeux Gratuit
15354131_1854970838071206_1069261547_o.png