Télécharger Pixels Blu-Ray 3D

Qualité BLURAY 3D SBS | FRENCH (VFQ)

Pixels

Pixels

Origine du film : Américain
Réalisateur : Chris Columbus
Acteurs : Adam Sandler, Michelle Monaghan, Kevin James
Genre : Science fiction, Action, Comédie
Durée : 1h46min
Date de sortie : 22 juillet 2015
Année de production : 2015
Distribué par : Sony Pictures Releasing France
Note presse : Pixels 3,2/5
Note spectateurs : Pixels 3,2/5 (1 986)
Bande annonce :

3fdfcf3ed52d7cb58f4d5072be0826e0

19553647″>Cliquez-ici pour voir la bande annonce 3fdfcf3ed52d7cb58f4d5072be0826e0″> 19553647

3fdfcf3ed52d7cb58f4d5072be0826e0

Pixels

À l’époque de leur jeunesse, dans les années 80, Sam Brenner, Will Cooper, Ludlow Lamonsoff et Eddie « Fire Blaster » Plant ont sauvé le monde des milliers de fois… en jouant à des jeux d’arcade à 25 cents la partie. Mais aujourd’hui, ils vont devoir le faire pour de vrai… Lorsque des aliens découvrent des vidéos d’anciens jeux et les prennent pour une déclaration de guerre, ils lancent l’assaut contre la Terre. Ces mêmes jeux d’arcade leur servent de modèles pour leurs attaques. Cooper, qui est désormais Président des États-Unis, fait alors appel à ses vieux potes pour empêcher la destruction de la planète par PAC-MAN, Donkey Kong, Galaga, Centipede et les Space Invaders… Les gamers pourront compter sur l’aide du lieutenant-colonel Violet Van Patten, une spécialiste qui va leur fournir des armes uniques…
100785″ style= »display:inline; »>

Pixels

Format : MKV

Pixels

Pixels.2015.3D.VFQ.SBS.1080P.AC351.FrOnly

(7004 Mo)

[Liens Interchangeables entre hébergeurs: 7x 1000 Mo + 1x 4 Mo]

Uptobox
Télécharger

Uplea
Télécharger

1fichier
Télécharger

Uploaded
Télécharger

Rapidgator
Télécharger

TurboBit
Télécharger

1 Lien Premium – 6.8 Go

Uptobox Premium
Télécharger

Uplea Premium
Télécharger

1fichier Premium
Télécharger

Uploaded Premium
Télécharger

TurboBit Premium
Télécharger

NFO :

Afficher / Masquer le texte 40d03a995e0f047aa909118b889313af » class= »text_spoiler » style= »display:none; »>General
Unique ID : 173434078657382064138344427400309368376 (0x827A304492C74786708BCE3E5841E638)
Complete name :Pixels.2015.3D.VFQ.SBS.1080P.AC351.FrOnly.mkv
Format : Matroska
Format version : Version 4 / Version 2
File size : 6.84 GiB
Duration : 1h 45mn
Overall bit rate : 9 252 Kbps
Movie name : [email protected]
Encoded date : UTC 2015-10-11 11:21:52
Writing application : mkvmerge v7.6.0 (‘Garden of Dreams’) 64bit built on Feb 8 2015 15:43:43
Writing library : x264 0.148.2597 e86f3a1 / (libswscale 3.1.101) / (libavformat 56.40.101) / (ffmpegsource 2.17.4.0) / built by Komisar on Aug 27 2015, gcc: 4.8.4 (multilib.generic.Komisar) / x264 configuration: –bit-depth=8 –chroma-format=all / libx264 configuration: –bit-depth=8 –chroma-format=all / x264 license: GPL version 2 or later / libswscale/libavformat/ffmpegsource license: GPL version 2 or later / (32bit)
Original source form : Blu-ray 3D
Attachements : __ENCODE_3D_MOVIE.avs / __ENCODE_3D.cmd / 3D-Planes.zip
TITLE : Pixels.2015.3D
AUTHOR : BD3D2MK3D 0.74
ENCODER_SETTINGS : –crf 16 –preset veryslow –tune film –level 4.1 –vbv-bufsize 78125 –vbv-maxrate 62500 –frame-packing 3
DATE_ENCODED : 2015-10-10
_STATISTICS_WRITING_APP : mkvmerge v7.6.0 (‘Garden of Dreams’) 64bit built on Feb 8 2015 15:43:43
_STATISTICS_WRITING_DATE_UTC : 2015-10-11 11:21:52
_STATISTICS_TAGS : BPS DURATION NUMBER_OF_FRAMES NUMBER_OF_BYTES
DURATION : 01:45:50.816000000
NUMBER_OF_FRAMES : 198463
NUMBER_OF_BYTES : 508065280

Video
ID : 1
Format : AVC
Format/Info : Advanced Video Codec
Format profile : [email protected]
MultiView_Count : 2
MultiView_Layout : Side by Side (left eye first)
Format settings, CABAC : Yes
Format settings, ReFrames : 4 frames
Codec ID : V_MPEG4/ISO/AVC
Duration : 1h 45mn
Bit rate : 8 428 Kbps
Width : 1 920 pixels
Height : 1 080 pixels
Display aspect ratio : 16:9
Frame rate mode : Constant
Frame rate : 23.976 fps
Color space : YUV
Chroma subsampling : 4:2:0
Bit depth : 8 bits
Scan type : Progressive
Bits/(Pixel*Frame) : 0.170
Stream size : 6.23 GiB (91%)
Title : Pixels.2015.3D.BluRay.1080p.Half-SBS.DTS.x264-EPiC
Writing library : x264 core 148 r2597 e86f3a1
Encoding settings : cabac=1 / ref=4 / deblock=1:-1:-1 / analyse=0x3:0x133 / me=umh / subme=10 / psy=1 / psy_rd=1.00:0.15 / mixed_ref=1 / me_range=24 / chroma_me=1 / trellis=2 / 8x8dct=1 / cqm=0 / deadzone=21,11 / fast_pskip=1 / chroma_qp_offset=-3 / threads=12 / lookahead_threads=2 / sliced_threads=0 / nr=0 / decimate=1 / interlaced=0 / bluray_compat=0 / constrained_intra=0 / bframes=8 / b_pyramid=2 / b_adapt=2 / b_bias=0 / direct=3 / weightb=1 / open_gop=0 / weightp=2 / keyint=250 / keyint_min=23 / scenecut=40 / intra_refresh=0 / rc_lookahead=60 / rc=crf / mbtree=1 / crf=16.0 / qcomp=0.60 / qpmin=0 / qpmax=69 / qpstep=4 / vbv_maxrate=62500 / vbv_bufsize=78125 / crf_max=0.0 / nal_hrd=none / filler=0 / frame-packing=3 / ip_ratio=1.40 / aq=1:1.00
Language : English
Default : Yes
Forced : No

Audio
ID : 2
Format : AC-3
Format/Info : Audio Coding 3
Mode extension : CM (complete main)
Format settings, Endianness : Big
Codec ID : A_AC3
Duration : 1h 45mn
Bit rate mode : Constant
Bit rate : 640 Kbps
Channel(s) : 6 channels
Channel positions : Front: L C R, Side: L R, LFE
Sampling rate : 48.0 KHz
Bit depth : 16 bits
Compression mode : Lossy
Stream size : 485 MiB (7%)
Title : FRENCH AC3 @640Kbps
Language : French
Default : Yes
Forced : Yes

Menu
00:00:00.000 : :1 – 0:00:00
00:04:54.043 : :2 – 0:04:54
00:10:21.662 : :3 – 0:10:22
00:14:51.765 : :4 – 0:14:52
00:19:51.815 : :5 – 0:19:52
00:26:19.869 : :6 – 0:26:20
00:32:57.809 : :7 – 0:32:58
00:40:35.474 : :8 – 0:40:35
00:47:40.482 : :9 – 0:47:40
00:52:33.275 : :10 – 0:52:33
00:58:56.074 : :11 – 0:58:56
01:05:07.695 : :12 – 1:05:08
01:09:23.075 : :13 – 1:09:23
01:18:13.021 : :14 – 1:18:13
01:27:54.185 : :15 – 1:27:54
01:33:53.002 : :16 – 1:33:53