Telecharger Pixels [BLURAY 720p] French

(TRUEFRENCH = Vraie voix française)

Qualité BLURAY 720p | TRUEFRENCH | son DTS

Pixels

Pixels

Origine du film : Américain
Réalisateur : Chris Columbus
Acteurs : Adam Sandler, Michelle Monaghan, Kevin James
Genre : Science fiction, Action, Comédie
Durée : 1h46min
Date de sortie : 22 juillet 2015
Année de production : 2015
Distribué par : Sony Pictures Releasing France
Note presse : Pixels 3,2/5
Note spectateurs : Pixels

; »>3,1/5 (2 368)
Bande annonce :

be8b1b3d54c3e248ad3c43c6256dc776

19553647″>Cliquez-ici pour voir la bande annonce be8b1b3d54c3e248ad3c43c6256dc776″> 19553647

be8b1b3d54c3e248ad3c43c6256dc776

Pixels

À l’époque de leur jeunesse, dans les années 80, Sam Brenner, Will Cooper, Ludlow Lamonsoff et Eddie « Fire Blaster » Plant ont sauvé le monde des milliers de fois… en jouant à des jeux d’arcade à 25 cents la partie. Mais aujourd’hui, ils vont devoir le faire pour de vrai… Lorsque des aliens découvrent des vidéos d’anciens jeux et les prennent pour une déclaration de guerre, ils lancent l’assaut contre la Terre. Ces mêmes jeux d’arcade leur servent de modèles pour leurs attaques. Cooper, qui est désormais Président des États-Unis, fait alors appel à ses vieux potes pour empêcher la destruction de la planète par PAC-MAN, Donkey Kong, Galaga, Centipede et les Space Invaders… Les gamers pourront compter sur l’aide du lieutenant-colonel Violet Van Patten, une spécialiste qui va leur fournir des armes uniques…
104921″ style= »display:inline; »>

Pixels

Format : MKV

Pixels

Pixels.2015.TRUEFRENCH.720p.BluRay.x264-Goatlove

(4468 Mo)

[Liens Interchangeables entre hébergeurs: 4x 1000 Mo + 1x 468 Mo]

Uptobox
Télécharger

Uplea
Télécharger

1fichier
Télécharger

Uploaded
Télécharger

Rapidgator
Télécharger

TurboBit
Télécharger

1 Lien Premium – 4.4 Go

Uptobox Premium
Télécharger

Uplea Premium
Télécharger

1fichier Premium
Télécharger

Uploaded Premium
Télécharger

TurboBit Premium
Télécharger

NFO :

Afficher / Masquer le texte 82c96b9128738a8f64377c36f0279c2c » class= »text_spoiler » style= »display:none; »>General
Complete name : pixels.2015.truefrench.720p.bluray.x264-goatlove.mkv
Format : Matroska
Format version : Version 2
File size : 4.36 GiB
Duration : 1h 45mn
Overall bit rate : 5 904 Kbps
Writing application : mkvmerge v6.6.0 (‘The Edge Of The In Between’) built on Dec 1 2013 17:55:00
Writing library : libebml v1.3.0 + libmatroska v1.4.1

Video
ID : 1
Format : AVC
Format/Info : Advanced Video Codec
Format profile : [email protected]
Format settings, CABAC : Yes
Format settings, ReFrames : 5 frames
Codec ID : V_MPEG4/ISO/AVC
Duration : 1h 45mn
Bit rate : 4 393 Kbps
Width : 1 280 pixels
Height : 536 pixels
Display aspect ratio : 2.40:1
Frame rate mode : Constant
Frame rate : 23.976 fps
Color space : YUV
Chroma subsampling : 4:2:0
Bit depth : 8 bits
Scan type : Progressive
Bits/(Pixel*Frame) : 0.267
Stream size : 3.16 GiB (72%)
Writing library : x264 core 148 r2638 7599210
Encoding settings : cabac=1 / ref=5 / deblock=1:0:0 / analyse=0x3:0x113 / me=umh / subme=8 / psy=1 / psy_rd=1.00:0.00 / mixed_ref=1 / me_range=16 / chroma_me=1 / trellis=1 / 8x8dct=1 / cqm=0 / deadzone=21,11 / fast_pskip=1 / chroma_qp_offset=-2 / threads=12 / lookahead_threads=2 / sliced_threads=0 / nr=0 / decimate=1 / interlaced=0 / bluray_compat=0 / constrained_intra=0 / bframes=3 / b_pyramid=2 / b_adapt=2 / b_bias=0 / direct=3 / weightb=1 / open_gop=0 / weightp=2 / keyint=250 / keyint_min=23 / scenecut=40 / intra_refresh=0 / rc_lookahead=50 / rc=2pass / mbtree=1 / bitrate=4393 / ratetol=1.0 / qcomp=0.60 / qpmin=0 / qpmax=69 / qpstep=4 / cplxblur=20.0 / qblur=0.5 / ip_ratio=1.40 / aq=1:1.00
Language : English
Default : Yes
Forced : No

Audio
ID : 2
Format : DTS
Format/Info : Digital Theater Systems
Mode : 16
Format settings, Endianness : Big
Codec ID : A_DTS
Duration : 1h 45mn
Bit rate mode : Constant
Bit rate : 1 509 Kbps
Channel(s) : 6 channels
Channel positions : Front: L C R, Side: L R, LFE
Sampling rate : 48.0 KHz
Bit depth : 24 bits
Compression mode : Lossy
Stream size : 1.12 GiB (26%)
Title : French
Language : French
Default : Yes
Forced : No

Text
ID : 3
Format : UTF-8
Codec ID : S_TEXT/UTF8
Codec ID/Info : UTF-8 Plain Text
Title : French Forced
Language : frf
Default : Yes
Forced : Yes

Menu
00:00:00.000 : en:00:00:00.000
00:04:54.044 : en:00:04:54.044
00:10:21.663 : en:00:10:21.663
00:14:51.766 : en:00:14:51.766
00:19:51.816 : en:00:19:51.816
00:26:19.870 : en:00:26:19.870
00:32:57.809 : en:00:32:57.809
00:40:35.475 : en:00:40:35.475
00:47:40.483 : en:00:47:40.483
00:52:33.275 : en:00:52:33.275
00:58:56.074 : en:00:58:56.074
01:05:07.695 : en:01:05:07.695
01:09:23.076 : en:01:09:23.076
01:18:13.022 : en:01:18:13.022
01:27:54.186 : en:01:27:54.186
01:33:53.002 : en:01:33:53.002

Jeux Gratuit
15354131_1854970838071206_1069261547_o.png