Telecharger Planes 2 [BLURAY 720p] French

(TRUEFRENCH = Vraie voix française)

BLURAY 720p | TRUEFRENCH

Mise a jour 19/11: Ajout de la version TRUEFRENCH

Planes 2

Planes 2

Planes 2

Origine du film : Américain
Réalisateur : Roberts Gannaway
Acteurs : Dane Cook, Ed Harris, Julie Bowen
Genre : Animation, Comédie, Famille
Durée : 1h24min
Date de sortie : 23 juillet 2014
Année de production : 2014
Titre Original : Planes: Fire & Rescue
Distribué par : The Walt Disney Company France
Note presse : Planes 2 3,2/5
Note spectateurs : Planes 2 3,3/5 (480)
Bande annonce :

ac52c6472ec9ce705b9435470a62c955

19540403″>Cliquez-ici pour voir la bande annonce ac52c6472ec9ce705b9435470a62c955″> 19540403

ac52c6472ec9ce705b9435470a62c955

Planes 2

Dusty est au sommet de sa gloire quand il apprend que son moteur est endommagé et qu’il ne pourra peut-être plus jamais participer à une course… Il  se lance  alors le défi de devenir pompier du ciel.  Il suivra sa formation auprès de l’élite du genre en charge de la protection du parc national de Piston Peak. Cette équipe de choc  est menée par Blade Ranger, un hélicoptère  vétéran charismatique et  est composée de Dipper, une grande fan de Dusty qui en pince pour lui,  Windlifter, un hélicoptère de transport lourd en charge de larguer sur les lieux de l’incendie les  intrépides et déjantés parachutistes du feu. Au cours de sa lutte contre le feu, Dusty va apprendre qu’il faut beaucoup de courage et ne jamais baisser les bras pour devenir un vrai héros.
61212″ style= »display:inline; »>

Planes 2

Qualité : BLURAY 720p
Format : MKV
Langue : Français
Découpé avec : Winrar

Planes 2


La version TRUEFRENCH (VFF):

Planes.Fire.and.Rescue.2014.TRUEFRENCH.720p.BluRay.x264-Goatlove ( 3353 Mo)

[4 Liens Interchangeables : 3 x 1000 Mo + 1 x 353 Mo]

Uptobox
Télécharger

Uplea
Télécharger

1fichier
Télécharger

Uploaded
Télécharger

Rapidgator
Télécharger

TurboBit
Télécharger

[1 Lien PREMIUM : 1 x 3.27 GB]

Uptobox
Télécharger

Uplea
Télécharger

1fichier
Télécharger

Uploaded
Télécharger

Rapidgator
Upload en cour…

TurboBit
Télécharger

NFO :

Afficher / Masquer le texte 9d6549a9b3a304014bc405d62f05b14d » class= »text_spoiler » style= »display:none; »>General
Format : Matroska
Format version : Version 2
File size : 3.27 GiB
Duration : 1h 23mn
Overall bit rate : 5 605 Kbps
Writing application : mkvmerge v6.6.0 (‘The Edge Of The In Between’) built on Dec 1 2013 17:55:00
Writing library : libebml v1.3.0 + libmatroska v1.4.1

Video
ID : 1
Format : AVC
Format/Info : Advanced Video Codec
Format profile : [email protected]
Format settings, CABAC : Yes
Format settings, ReFrames : 5 frames
Codec ID : V_MPEG4/ISO/AVC
Duration : 1h 23mn
Bit rate : 4 095 Kbps
Width : 1 280 pixels
Height : 536 pixels
Display aspect ratio : 2.40:1
Frame rate mode : Constant
Frame rate : 23.976 fps
Color space : YUV
Chroma subsampling : 4:2:0
Bit depth : 8 bits
Scan type : Progressive
Bits/(Pixel*Frame) : 0.249
Stream size : 2.33 GiB (71%)
Writing library : x264 core 142 r2491 24e4fed
Encoding settings : cabac=1 / ref=5 / deblock=1:0:0 / analyse=0x3:0x133 / me=umh / subme=8 / psy=1 / psy_rd=1.00:0.00 / mixed_ref=1 / me_range=16 / chroma_me=1 / trellis=1 / 8x8dct=1 / cqm=0 / deadzone=21,11 / fast_pskip=0 / chroma_qp_offset=-2 / threads=12 / lookahead_threads=2 / sliced_threads=0 / nr=0 / decimate=1 / interlaced=0 / bluray_compat=0 / constrained_intra=0 / bframes=3 / b_pyramid=2 / b_adapt=2 / b_bias=0 / direct=3 / weightb=1 / open_gop=0 / weightp=2 / keyint=250 / keyint_min=23 / scenecut=40 / intra_refresh=0 / rc_lookahead=50 / rc=2pass / mbtree=1 / bitrate=4095 / ratetol=1.0 / qcomp=0.60 / qpmin=0 / qpmax=69 / qpstep=4 / cplxblur=20.0 / qblur=0.5 / ip_ratio=1.40 / aq=1:1.00
Language : English
Default : Yes
Forced : No

Audio
ID : 2
Format : DTS
Format/Info : Digital Theater Systems
Mode : 16
Format settings, Endianness : Big
Codec ID : A_DTS
Duration : 1h 23mn
Bit rate mode : Constant
Bit rate : 1 509 Kbps
Channel(s) : 6 channels
Channel positions : Front: L C R, Side: L R, LFE
Sampling rate : 48.0 KHz
Bit depth : 24 bits
Compression mode : Lossy
Stream size : 903 MiB (27%)
Title : French
Language : French
Default : Yes
Forced : No

Menu
00:00:00.000 : en:00:00:00.000
00:03:27.791 : en:00:03:27.791
00:07:48.593 : en:00:07:48.593
00:12:36.005 : en:00:12:36.005
00:17:38.849 : en:00:17:38.849
00:22:55.165 : en:00:22:55.165
00:27:45.289 : en:00:27:45.289
00:32:37.205 : en:00:32:37.205
00:35:24.789 : en:00:35:24.789
00:38:31.017 : en:00:38:31.017
00:41:38.287 : en:00:41:38.287
00:47:21.046 : en:00:47:21.046
00:55:00.714 : en:00:55:00.714
00:57:29.029 : en:00:57:29.029
01:00:33.880 : en:01:00:33.880
01:05:22.710 : en:01:05:22.710
01:09:07.685 : en:01:09:07.685
01:13:55.264 : en:01:13:55.264


La version VFQ:

Planes.Fire.And.Rescue.2014.FRENCH.720p.BluRay.x264-DesTroY ( 2100 Mo)

[Liens Interchangeables]

Uptobox
Télécharger

Uplea
Télécharger

1fichier
Télécharger

Uploaded
Télécharger

Rapidgator
Télécharger

TurboBit
Télécharger

[ 1 lien Premium – 2,1 Go ]

Uptobox
Télécharger

Uplea
Télécharger

1fichier
Télécharger

Uploaded
Télécharger

TurboBit
Télécharger

NFO :

Afficher / Masquer le texte 68c73b8dfc239df4a5311f638e3fd481″ class= »text_spoiler » style= »display:none; »> Codec………: x264 Codec………: AC3 ║ ▓▒▒▒
▒▒▒▓ ║ Bitrate…….: 3013 kbps Bitrate…….: 640 kbps ║ ▒▒▒
▒▒▒ ▓ ║ Resolution….: 1280 x 536 Channels……: 5.1 ║ ▒▒▒▓
▒▒▒▓ ║ FrameRate…..: 23.976 fps Language……: fr ║ ▒▒▒ ▓
▒▒▒ ║ Aspect Ratio..: 2.35 ║ ▒▒▒▓
▓▒▒▒ ║ Length……..: 01h23mn ║ ▒▓▒
▓ ▒▒▒ ║ ║ ▓▒▒▒
▓▒▒▒ ║ Subtitles: FR [ ] EN [ ] FRF [ ∙ ] OTHERS [ ] ║ ▓ ▒▒▒
▒▓▒ ╚════════════════════════════════════════════════════════

Jeux Gratuit
15354131_1854970838071206_1069261547_o.png