Telecharger Point limite zéro [DVDRiP] French

Qualité BLURAY 1080p | MULTiLANGUES | son DTS

Point limite zéro

Point limite zéro

Origine du film : Britannique, Américain
Réalisateur : Richard C. Sarafian
Acteurs : Barry Newman, Cleavon Little, Dean Jagger
Genre : Action, Drame, Policier
Durée : 1h37min
Date de sortie : 8 mars 2006
Année de production : 1971
Titre Original : Vanishing Point
Distribué par : Solaris Distribution
Note presse : Point limite zéro 3,5/5
Note spectateurs : Point limite zéro

; »>3,6/5 (481)
Bande annonce :

51bcb53ce7cf71d6fa96eb8eda12df9a

19423631″>Cliquez-ici pour voir la bande annonce 51bcb53ce7cf71d6fa96eb8eda12df9a »> 19423631

51bcb53ce7cf71d6fa96eb8eda12df9a

Point limite zéro

Kowalski, un ex-flic vétéran du Vietnam, champion de stock-car, parie qu’il ralliera Denver à San Francisco en moins de quinze heures. Les policiers de Californie et du Nevada ne tardent pas à se mettre à sa poursuite …
100581″ style= »display:inline; »>

Point limite zéro

Format : MKV
Découpé avec : Winrar

Point limite zéro

Vanishing.Point.1971.MULTI.1080p.BluRay.x264.DTS.DTS-HD.MA.5.1-Visual

(12362 Mo)

[Liens Interchangeables entre hébergeurs: 12x 1000 Mo + 1x 362 Mo]

Uptobox
Télécharger

Uplea
Télécharger

1fichier
Télécharger

Uploaded
Télécharger

Rapidgator
Télécharger

TurboBit
Télécharger

[ Liens Premium ]

Uptobox
Télécharger

Uplea
Télécharger

1fichier
Télécharger

Uploaded
Télécharger

TurboBit
Télécharger

NFO :

Afficher / Masquer le texte e8c3ae5a0ad60d5a2cd6db831897ac32″ class= »text_spoiler » style= »display:none; »>Vanishing.Point.1971.MULTI.1080p.BluRay.x264.DTS.DTS-HD.MA.5.1-Visual.mkv
Format : Matroska
Format version : Version 4 / Version 2
File size : 12.1 GiB
Duration : 1h 38mn
Overall bit rate mode : Variable
Overall bit rate : 17.5 Mbps
Encoded date : UTC 2013-12-30 11:47:59
Writing application : mkvmerge v6.5.0 (‘Isn’t she lovely’) built on Oct 20 2013 12:50:05
Writing library : libebml v1.3.0 + libmatroska v1.4.1

Video
ID : 1
Format : AVC
Format/Info : Advanced Video Codec
Format profile : [email protected]
Format settings, CABAC : Yes
Format settings, ReFrames : 4 frames
Codec ID : V_MPEG4/ISO/AVC
Duration : 1h 38mn
Bit rate : 14.8 Mbps
Nominal bit rate : 13.8 Mbps
Width : 1 920 pixels
Height : 1 080 pixels
Display aspect ratio : 16:9
Frame rate : 23.976 fps
Color space : YUV
Chroma subsampling : 4:2:0
Bit depth : 8 bits
Scan type : Progressive
Bits/(Pixel*Frame) : 0.298
Stream size : 10.2 GiB (85%)
Title : Vanishing.Point.1971.MULTI.1080p.BluRay.x264.DTS.DTS-HD.MA.5.1-Visual
Writing library : x264 core 140 r2377 1ca7bb9
Encoding settings : cabac=1 / ref=4 / deblock=1:-3:-3 / analyse=0x3:0x113 / me=umh / subme=11 / psy=1 / psy_rd=1.00:0.02 / mixed_ref=1 / me_range=64 / chroma_me=1 / trellis=2 / 8x8dct=1 / cqm=0 / deadzone=6,6 / fast_pskip=0 / chroma_qp_offset=-3 / threads=12 / lookahead_threads=1 / sliced_threads=0 / nr=0 / decimate=0 / interlaced=0 / bluray_compat=0 / constrained_intra=0 / bframes=5 / b_pyramid=2 / b_adapt=2 / b_bias=0 / direct=3 / weightb=1 / open_gop=1 / weightp=2 / keyint=250 / keyint_min=23 / scenecut=40 / intra_refresh=0 / rc_lookahead=250 / rc=2pass / mbtree=1 / bitrate=13800 / ratetol=1.0 / qcomp=0.60 / qpmin=0 / qpmax=69 / qpstep=4 / cplxblur=20.0 / qblur=0.5 / vbv_maxrate=50000 / vbv_bufsize=50000 / nal_hrd=none / filler=0 / ip_ratio=1.40 / aq=2:1.00
Language : English
Default : Yes
Forced : No
Color primaries : BT.709-5, BT.1361, IEC 61966-2-4, SMPTE RP177
Transfer characteristics : BT.709-5, BT.1361
Matrix coefficients : BT.709-5, BT.1361, IEC 61966-2-4 709, SMPTE RP177

Audio #1
ID : 2
Format : DTS
Format/Info : Digital Theater Systems
Codec ID : A_DTS
Duration : 1h 38mn
Bit rate mode : Constant
Bit rate : 754 Kbps
Channel(s) : 6 channels
Channel positions : Front: L C R, Side: L R, LFE
Sampling rate : 48.0 KHz
Bit depth : 24 bits
Compression mode : Lossy
Stream size : 533 MiB (4%)
Title : DTS 768 kbps 5.1 / 48 kHz / 24-bit
Language : French
Default : Yes
Forced : Yes

Audio #2
ID : 3
Format : DTS
Format/Info : Digital Theater Systems
Format profile : MA / Core
Codec ID : A_DTS
Duration : 1h 38mn
Bit rate mode : Variable
Bit rate : 1 561 Kbps / 1 510 Kbps
Channel(s) : 6 channels
Channel positions : Front: L C R, Side: L R, LFE
Sampling rate : 48.0 KHz
Bit depth : 24 bits
Compression mode : Lossless / Lossy
Title : DTS-HD.MA 2928 kbps 5.1 / 48 kHz / 24-bit (DTS Core: 5.1 / 48 kHz / 1509 kbps / 24-bit)
Language : English
Default : No
Forced : No

Text #1
ID : 4
Format : UTF-8
Codec ID : S_TEXT/UTF8
Codec ID/Info : UTF-8 Plain Text
Title : FORCES
Language : French
Default : Yes
Forced : Yes

Text #2
ID : 5
Format : UTF-8
Codec ID : S_TEXT/UTF8
Codec ID/Info : UTF-8 Plain Text
Title : COMPLETS
Language : French
Default : No
Forced : No

Menu
00:00:00.000 : en:Main Titles
00:02:00.996 : en:The White Challenger
00:09:35.408 : en:Kowalski’s Bet
00:13:50.246 : en:Super Soul
00:15:57.456 : en:On The Run
00:20:56.005 : en:Suspect Vehicle
00:26:03.896 : en:Duel
00:29:42.239 : en:Crossing The Line
00:32:53.471 : en:The Ex-Cop
00:35:22.620 : en:The Last Free Soul
00:38:20.465 : en:Hot Pursuit
00:44:57.028 : en:Into the Desert
00:47:38.981 : en:Super Soul’s Warning
00:50:59.765 : en:Scars
00:56:01.566 : en:The Prospector
00:59:02.038 : en:Hiding From The Helecopter
01:02:03.762 : en:The Faith Healers
01:09:27.747 : en:Newlyweds
01:12:24.382 : en:Big Brother Is Listening
01:14:33.260 : en:Off The Air
01:16:10.983 : en:Angel’s Offer
01:19:04.865 : en:Sensing A Trap
01:21:25.672 : en:A Long Time Ago
01:24:11.713 : en:The Pig Pass
01:28:29.137 : en:Kowalski’s Call
01:29:55.515 : en:Back On The Air
01:33:28.394 : en:Showdown In Cisco
01:37:24.672 : en:End Titles