Telecharger Police Story (Version Intégrale) [DVDRiP] French

(TRUEFRENCH = Vraie voix française)

Qualité DVDRiP | TRUEFRENCH

Police Story (Version Intégrale)

Police Story (Version Intégrale)

Origine du film : Hong-Kongais
Réalisateur : Jackie Chan
Acteurs : Jackie Chan, Brigitte Lin Ching-hsia, Bill Tung
Genre : Action, Comédie, Thriller
Durée : 1h40min
Année de production : 1985
Titre Original : Ging chaat goo si
Distribué par : Metropolitan FilmExport
Note spectateurs : Police Story (Version Intégrale)

; »>3,4/5 (433)
Bande annonce :

9db9cf71af724e08e261514f0db8461f

19475296″>Cliquez-ici pour voir la bande annonce 9db9cf71af724e08e261514f0db8461f »> 19475296

9db9cf71af724e08e261514f0db8461f

Police Story (Version Intégrale)

L’inspecteur Chan se voit confier la protection d’une femme, petite amie d’un parrain de la mafia que Chan essaye de mettre sous les verrous depuis plusieurs mois. En moins de 48h, il va devoir faire face à cette mission, à sa fiancée qui le croit infidèle et à la horde de mafieux qui veut le mettre hors-circuit.
100050″ style= »display:inline; »>

Police Story (Version Intégrale)

Format : XviD

Police Story (Version Intégrale)

(Jackie.Chan).Police.Story.FRENCH.DVDRiP.AC3.XviD-FACROSS (Version Intégrale)

(1360 Mo)

Uptobox
Télécharger

Uploaded
Télécharger

TurboBit
Télécharger

Rapidgator
Télécharger

Uplea
Télécharger

1fichier
Télécharger

NFO :

Afficher / Masquer le texte a2ad5f5c187a79b3f1496e42162f7f10″ class= »text_spoiler » style= »display:none; »>■General

Complete name : D:Téléchargements(Jackie.Chan).Police.Story.FRENCH.DVDRiP.AC3.XviD-FACROSS.avi

Format : AVI

Format/Info : Audio Video Interleave

File size : 1.36 GiB

Duration : 1h 36mn

Overall bit rate : 2 025 Kbps

Writing application : FairUse Wizard – http://fairusewizard.com

Writing library : The best and REALLY easy backup tool

Video

ID : 0

Format : MPEG-4 Visual

Format profile : Advanced [email protected]

Format settings, BVOP : 1

Format settings, QPel : No

Format settings, GMC : No warppoints

Format settings, Matrix : Default (MPEG)

Muxing mode : Packed bitstream

Codec ID : XVID

Codec ID/Hint : XviD

Duration : 1h 36mn

Bit rate : 1 632 Kbps

Width : 768 pixels

Height : 464 pixels

Display aspect ratio : 1.655

Frame rate : 25.000 fps

Color space : YUV

Chroma subsampling : 4:2:0

Bit depth : 8 bits

Scan type : Progressive

Compression mode : Lossy

Bits/(Pixel*Frame) : 0.183

Stream size : 1.10 GiB (81%)

Writing library : XviD 1.2.0.dev47 (UTC 2006-11-01)

Audio

ID : 1

Format : AC-3

Format/Info : Audio Coding 3

Mode extension : CM (complete main)

Format settings, Endianness : Big

Codec ID : 2000

Duration : 1h 36mn

Bit rate mode : Constant

Bit rate : 384 Kbps

Channel(s) : 6 channels

Channel positions : Front: L C R, Side: L R, LFE

Sampling rate : 48.0 KHz

Bit depth : 16 bits

Compression mode : Lossy

Stream size : 265 MiB (19%)

Alignment : Split accross interleaves

Interleave, duration : 40 ms (1.00 video frame)

Interleave, preload duration : 500 ms