Télécharger Poltergeist DVDSCR/R5/TS/CAM FRENCH

(TRUEFRENCH = Vraie voix française)

Qualité HDRiP | TRUEFRENCH | MD

Poltergeist

Poltergeist

Poltergeist

Origine du film : Américain
Réalisateur : Gil Kenan
Acteurs : Sam Rockwell, Rosemarie DeWitt, Jared Harris
Genre : Epouvante-horreur
Durée : 1h34min
Date de sortie : 24 juin 2015
Année de production : 2015
Distribué par : Twentieth Century Fox France
Note presse : Poltergeist 2,2/5
Note spectateurs : Poltergeist 2,1/5 (623)
Bande annonce :

b5c888f0a29d08805b97983c77f776b7

19551197″>Cliquez-ici pour voir la bande annonce b5c888f0a29d08805b97983c77f776b7″> 19551197

b5c888f0a29d08805b97983c77f776b7

Poltergeist

Lorsque les Bowen emménagent dans leur nouvelle maison, ils sont rapidement confrontés à des phénomènes étranges. Une présence hante les lieux. Une nuit, leur plus jeune fille, Maddie, disparaît. Pour avoir une chance de la revoir, tous vont devoir mener un combat acharné contre un terrifiant poltergeist…
90832″ style= »display:inline; »>

Poltergeist

Format : MKV

Poltergeist

Qualité vidéo 9/10 Qualité audio 6/10

Poltergeist.2015.TRUEFRENCH.MD.HDRip.x264.AC3-ZT

(958 Mo)

Uptobox
Télécharger

Uplea
Télécharger

1fichier
Télécharger

Uploaded
Télécharger

Rapidgator
Télécharger

TurboBit
Télécharger

Poltergeist.2015.TRUEFRENCH.HDRip.MD.AC3.XviD-ETERNiTY

(1300 Mo)

Télécharger un extrait du Film
Vidéo : 9/10 | Audio : 6/10

Uptobox
Télécharger

Uplea
Télécharger

1fichier
Télécharger

Uploaded
Télécharger

Rapidgator
Télécharger

TurboBit
Télécharger

NFO :

Afficher / Masquer le texte 85a16aebb145b555faf89c9e2cf706e5″ class= »text_spoiler » style= »display:none; »>Format : Matroska
Format version : Version 4 / Version 2
File size : 959 MiB
Duration : 1h 33mn
Overall bit rate : 1 432 Kbps
Encoded date : UTC 2015-07-10 18:21:56
Writing application : mkvmerge v8.0.0 (‘Til The Day That I Die’) 64bit
Writing library : libebml v1.3.1 + libmatroska v1.4.2
DURATION : 01:33:38.976000000
NUMBER_OF_FRAMES : 175593
NUMBER_OF_BYTES : 314662656
_STATISTICS_WRITING_APP : mkvmerge v8.0.0 (‘Til The Day That I Die’) 64bit
_STATISTICS_WRITING_DATE_UT : 2015-07-10 18:21:56
_STATISTICS_TAGS : BPS DURATION NUMBER_OF_FRAMES NUMBER_OF_BYTES

Video
ID : 1
Format : AVC
Format/Info : Advanced Video Codec
Format profile : [email protected]
Format settings, CABAC : Yes
Format settings, ReFrames : 5 frames
Codec ID : V_MPEG4/ISO/AVC
Duration : 1h 33mn
Bit rate : 982 Kbps
Width : 1 280 pixels
Height : 534 pixels
Display aspect ratio : 2.40:1
Frame rate mode : Constant
Frame rate : 23.976 fps
Color space : YUV
Chroma subsampling : 4:2:0
Bit depth : 8 bits
Scan type : Progressive
Bits/(Pixel*Frame) : 0.060
Stream size : 640 MiB (67%)
Writing library : x264 core 146 r2538 121396c
Encoding settings : cabac=1 / ref=5 / deblock=1:-1:-1 / analyse=0x3:0x113 / me=umh / subme=8 / psy=1 / psy_rd=1.00:0.00 / mixed_ref=1 / me_range=16 / chroma_me=1 / trellis=1 / 8x8dct=1 / cqm=0 / deadzone=21,11 / fast_pskip=1 / chroma_qp_offset=-2 / threads=12 / lookahead_threads=2 / sliced_threads=0 / nr=0 / decimate=1 / interlaced=0 / bluray_compat=0 / constrained_intra=0 / bframes=3 / b_pyramid=2 / b_adapt=2 / b_bias=0 / direct=3 / weightb=1 / open_gop=0 / weightp=2 / keyint=240 / keyint_min=23 / scenecut=40 / intra_refresh=0 / rc_lookahead=50 / rc=2pass / mbtree=1 / bitrate=982 / ratetol=1.0 / qcomp=0.60 / qpmin=10 / qpmax=51 / qpstep=4 / cplxblur=20.0 / qblur=0.5 / vbv_maxrate=62500 / vbv_bufsize=78125 / nal_hrd=none / filler=0 / ip_ratio=1.40 / aq=1:1.00
Default : Yes
Forced : No

Audio
ID : 2 ( THX EXTREME)
Format : AC-3
Format/Info : Audio Coding 3
Mode extension : CM (complete main)
Format settings, Endianness : Big
Codec ID : A_AC3
Duration : 1h 33mn
Bit rate mode : Constant
Bit rate : 448 Kbps
Channel(s) : 6 channels
Channel positions : Front: L C R, Side: L R, LFE
Sampling rate : 48.0 KHz
Compression mode : Lossy
Stream size : 300 MiB (31%)
Language : French
Default : Yes
Forced : No

Jeux Gratuit
15354131_1854970838071206_1069261547_o.png