Telecharger Possédée [BLURAY 720p] French

(TRUEFRENCH = Vraie voix française)

BLURAY 720p | MULTiLANGUES (Avec TRUEFRENCH) | DTS

Possédée

Possédée

Possédée

Origine du film : Américain
Réalisateur : Ole Bornedal
Acteurs : Jeffrey Dean Morgan, Kyra Sedgwick, Natasha Calis
Genre : Epouvante-horreur
Durée : 1h 35min
Date de sortie : 26 décembre 2012
Année de production : 2012
Titre Original : The Possession
Distribué par : Metropolitan FilmExport
Note presse : Possédée 2,1/5
Note spectateurs : Possédée

; »>2,9/5 (1 485)
Bande annonce :

cfc0a6896af9c20cf30aeda015efd6c1

19343145″>Cliquez-ici pour voir la bande annonce cfc0a6896af9c20cf30aeda015efd6c1″> 19343145

cfc0a6896af9c20cf30aeda015efd6c1

Possédée

Clyde et Stephanie Brenek ne voient pas de raison de s’inquiéter lorsque leur fille cadette Em devient étrangement obsédée par un petit coffre en bois acheté lors d’un vide grenier. Mais rapidement, son comportement devient de plus en plus agressif et le couple suspecte la présence d’une force malveillante autour d’eux. Ils découvrent alors que la boîte fut créée afin de contenir un Dibbuk, un esprit qui habite et dévore finalement son hôte humain.

Nom de la release : The.Possession.2012.MULTi.TRUEFRENCH.720p.BluRay.x264-RiV3R 27619″ style= »display:inline; »>

Qualité : BLURAY 720p
Format : MKV
Langue : Anglais, Français
Sous-titre : Français
Découpé avec : Winrar
Nombre de fichiers : 4 Fichiers
Taille des fichiers : 1000 Mo 828 Mo
Taille totale : 3828 Mo

[4 Liens Interchangeables : 3 x 1000 Mo 1 x 828 Mo]

1fichier
Télécharger

Uptobox
Télécharger

Free
Télécharger

Uploaded
Télécharger

Rapidgator
Télécharger

TurboBit
Télécharger

[1 lien PREMIUM : 1 x 3.73 GB]

1fichier
Télécharger

Uptobox
Télécharger

Uploaded
Télécharger

TurboBit
Télécharger

NFO :

Afficher / Masquer le texte 4ad239d91f354e1bf86e4ca37f235548″ class= »text_spoiler » style= »display:none; »>Source : BD Z2 FR
Video : x264 core 133 @2560 Kbps (crf=18.8)
Audio : VFF DTS 5.1 @1510 Kbps VO DTS 5.1 @1510 Kbps
Sous-titres : Fr Forces Fr Complets
Date : 09/06/2013

General
Unique ID : 333726708114210411501354180879102172393 (0xFB116D10F3520A1D8C0F1FF770B2DCE9)
Complete name : The.Possession.2012.MULTi.TRUEFRENCH.720p.BluRay.x264-RiV3R.mkv
Format : Matroska
Format version : Version 4 / Version 2
File size : 3.74 GiB
Duration : 1h 34mn
Overall bit rate : 5 691 Kbps
Encoded date : UTC 2013-06-09 16:11:40
Writing application : mkvmerge v6.2.0 ('Promised Land') built on Apr 29 2013 07:50:39
Writing library : libebml v1.3.0 libmatroska v1.4.0

Video
ID : 1
Format : AVC
Format/Info : Advanced Video Codec
Format profile : [email protected]
Format settings, CABAC : Yes
Format settings, ReFrames : 12 frames
Codec ID : V_MPEG4/ISO/AVC
Duration : 1h 34mn
Bit rate : 2 560 Kbps
Width : 1 280 pixels
Height : 534 pixels
Display aspect ratio : 2.40:1
Frame rate mode : Constant
Frame rate : 23.976 fps
Color space : YUV
Chroma subsampling : 4:2:0
Bit depth : 8 bits
Scan type : Progressive
Bits/(Pixel*Frame) : 0.156
Stream size : 1.68 GiB (45%)
Writing library : x264 core 133
Encoding settings : cabac=1 / ref=12 / deblock=1:-3:-3 / analyse=0x3:0x133 / me=umh / subme=11 / psy=1 / psy_rd=0.98:0.08 / mixed_ref=1 / me_range=64 / chroma_me=1 / trellis=2 / 8x8dct=1 / cqm=0 / deadzone=6,6 / fast_pskip=0 / chroma_qp_offset=-3 / threads=6 / lookahead_threads=1 / sliced_threads=0 / nr=0 / decimate=1 / interlaced=0 / bluray_compat=0 / constrained_intra=0 / bframes=16 / b_pyramid=2 / b_adapt=2 / b_bias=0 / direct=3 / weightb=1 / open_gop=0 / weightp=2 / keyint=240 / keyint_min=24 / scenecut=40 / intra_refresh=0 / rc_lookahead=240 / rc=crf / mbtree=1 / crf=18.8 / qcomp=0.60 / qpmin=0 / qpmax=69 / qpstep=4 / vbv_maxrate=50000 / vbv_bufsize=50000 / crf_max=0.0 / nal_hrd=none / ip_ratio=1.40 / aq=2:1.00
Language : English
Default : Yes
Forced : No
Color primaries : BT.709
Transfer characteristics : BT.709
Matrix coefficients : BT.709

Audio #1
ID : 2
Format : DTS
Format/Info : Digital Theater Systems
Mode : 16
Format settings, Endianness : Big
Codec ID : A_DTS
Duration : 1h 34mn
Bit rate mode : Constant
Bit rate : 1 509 Kbps
Channel(s) : 6 channels
Channel positions : Front: L C R, Side: L R, LFE
Sampling rate : 48.0 KHz
Bit depth : 16 bits
Compression mode : Lossy
Stream size : 1 015 MiB (27%)
Language : French
Default : Yes
Forced : No

Audio #2
ID : 3
Format : DTS
Format/Info : Digital Theater Systems
Mode : 16
Format settings, Endianness : Big
Codec ID : A_DTS
Duration : 1h 34mn
Bit rate mode : Constant
Bit rate : 1 509 Kbps
Channel(s) : 6 channels
Channel positions : Front: L C R, Side: L R, LFE
Sampling rate : 48.0 KHz
Bit depth : 16 bits
Compression mode : Lossy
Stream size : 1 015 MiB (27%)
Language : English
Default : No
Forced : No

Text #1
ID : 4
Format : UTF-8
Codec ID : S_TEXT/UTF8
Codec ID/Info : UTF-8 Plain Text
Title : FR Forces
Language : French
Default : Yes
Forced : Yes

Text #2
ID : 5
Format : UTF-8
Codec ID : S_TEXT/UTF8
Codec ID/Info : UTF-8 Plain Text
Title : FR Complets
Language : French
Default : No
Forced : No

Menu
00:00:00.000 : en:
00:03:49.479 : en:
00:11:12.838 : en:
00:15:14.288 : en:
00:23:06.718 : en:
00:30:53.393 : en:
00:35:16.781 : en:
00:41:19.894 : en:
00:46:06.096 : en:
00:50:21.226 : en:
00:55:58.772 : en:
01:02:31.539 : en:
01:09:17.403 : en:
01:13:50.843 : en:
01:21:08.196 : en:
01:28:34.934 : en:
01:34:03.179 : en:

Jeux Gratuit
15354131_1854970838071206_1069261547_o.png