Telecharger Pound of Flesh [BLURAY 720p] French

Qualité BLURAY 720p | FRENCH (VFQ)

Pound of Flesh

Pound of Flesh

Pound of Flesh

Origine du film : Américain
Réalisateur : Ernie Barbarash
Acteurs : Jean-Claude Van Damme, Darren Shahlavi, John Ralston
Genre : Action, Thriller
Durée : 1h44min
Année de production : 2015

Pound of Flesh

Arrivé en Chine pour donner un de ses reins à sa nièce mourante, Deacon se réveille la veille de l’opération et découvre qu’il est victime d’un réseau de trafic d’organes…
88804″ style= »display:inline; »>

Pound of Flesh

Format : MKV

Pound of Flesh

Pound.of.Flesh.2015.FRENCH.720p.BluRay.x264.AC3-BUITONIO

(4752 Mo)

[Liens Interchangeables entre hébergeurs: 4x 1000 Mo + 1x 752 Mo]

Uptobox
Télécharger

Uplea
Télécharger

1fichier
Télécharger

Uploaded
Télécharger

Rapidgator
Télécharger

TurboBit
Télécharger

1 Lien Premium – 4.6 Go

Uptobox Premium
Télécharger

Uplea Premium
Télécharger

1fichier Premium
Télécharger

Uploaded Premium
Télécharger

TurboBit Premium
Télécharger

NFO :

Afficher / Masquer le texte 96e05876846716fe15bc318bdf0ccb9c » class= »text_spoiler » style= »display:none; »>General
Unique ID : 72528599689478948217081003423211940477 (0x3690800CE324877957671F0F3C676A7D)
Complete name : Pound.of.Flesh.2015.FRENCH.720p.BluRay.x264.AC3-BUITONIO.mkv
Format : Matroska
Format version : Version 4 / Version 2
File size : 4.64 GiB
Duration : 1h 44mn
Overall bit rate : 6 363 Kbps
Encoded date : UTC 2015-06-22 15:15:13
Writing application : mkvmerge v8.0.0 (‘Til The Day That I Die’) 64bit
Writing library : libebml v1.3.1 + libmatroska v1.4.2

Video
ID : 1
Format : AVC
Format/Info : Advanced Video Codec
Format profile : [email protected]
Format settings, CABAC : Yes
Format settings, ReFrames : 5 frames
Codec ID : V_MPEG4/ISO/AVC
Duration : 1h 44mn
Bit rate : 5 979 Kbps
Width : 1 280 pixels
Height : 720 pixels
Display aspect ratio : 16:9
Frame rate mode : Constant
Frame rate : 23.976 fps
Color space : YUV
Chroma subsampling : 4:2:0
Bit depth : 8 bits
Scan type : Progressive
Bits/(Pixel*Frame) : 0.271
Stream size : 4.27 GiB (92%)
Writing library : x264 core 144 r2525 40bb568
Encoding settings : cabac=1 / ref=5 / deblock=1:0:0 / analyse=0x3:0x133 / me=umh / subme=7 / psy=1 / psy_rd=1.00:0.00 / mixed_ref=1 / me_range=16 / chroma_me=1 / trellis=1 / 8x8dct=1 / cqm=0 / deadzone=21,11 / fast_pskip=0 / chroma_qp_offset=-2 / threads=18 / lookahead_threads=3 / sliced_threads=0 / nr=0 / decimate=1 / interlaced=0 / bluray_compat=0 / constrained_intra=0 / bframes=3 / b_pyramid=2 / b_adapt=1 / b_bias=0 / direct=1 / weightb=1 / open_gop=0 / weightp=2 / keyint=250 / keyint_min=23 / scenecut=40 / intra_refresh=0 / rc_lookahead=40 / rc=2pass / mbtree=1 / bitrate=5979 / ratetol=1.0 / qcomp=0.60 / qpmin=0 / qpmax=69 / qpstep=4 / cplxblur=20.0 / qblur=0.5 / ip_ratio=1.40 / aq=1:1.00
Language : English
Default : Yes
Forced : No

Audio
ID : 2
Format : AC-3
Format/Info : Audio Coding 3
Mode extension : CM (complete main)
Format settings, Endianness : Big
Codec ID : A_AC3
Duration : 1h 44mn
Bit rate mode : Constant
Bit rate : 384 Kbps
Channel(s) : 6 channels
Channel positions : Front: L C R, Side: L R, LFE
Sampling rate : 48.0 KHz
Bit depth : 16 bits
Compression mode : Lossy
Delay relative to video : 78ms
Stream size : 287 MiB (6%)
Language : French
Default : Yes
Forced : No

Menu
00:00:00.000 : en:Chapitre 1
00:07:08.762 : en:Chapitre 2
00:12:44.555 : en:Chapitre 3
00:26:53.654 : en:Chapitre 4
00:31:38.772 : en:Chapitre 5
00:43:34.987 : en:Chapitre 6
00:53:56.358 : en:Chapitre 7
01:03:47.782 : en:Chapitre 8
01:14:44.397 : en:Chapitre 9
01:23:51.985 : en:Chapitre 10
01:34:51.811 : en:Chapitre 11
01:39:59.118 : en:Chapitre 12

Jeux Gratuit
15354131_1854970838071206_1069261547_o.png