Telecharger Pour elle [BLURAY 720p] French

Qualité BLURAY 720p | FRENCH | son DTS

Pour elle

Pour elle

Origine du film : Français
Réalisateur : Fred Cavayé
Acteurs : Vincent Lindon, Diane Kruger, Lancelot Roch
Genre : Thriller
Durée : 1h36min
Date de sortie : 3 décembre 2008
Année de production : 2008
Distribué par : Mars Distribution
Note presse : Pour elle 3,5/5
Note spectateurs : Pour elle

; »>3,9/5 (3 439)
Bande annonce :

9cc8f0bb2186e361a5ddc4c6dfb1a14e

18839988″>Cliquez-ici pour voir la bande annonce 9cc8f0bb2186e361a5ddc4c6dfb1a14e »> 18839988

9cc8f0bb2186e361a5ddc4c6dfb1a14e

Pour elle

Lisa et Julien sont mariés et mènent une vie heureuse et sans histoire avec leur fils Oscar. Mais leur vie bascule, quand un matin la police vient arrêter Lisa pour meurtre.Elle est condamnée à 20 ans de prison.Persuadé de l’innocence de sa femme, Julien décide de la faire évader.Jusqu’où sera-t-il prêt à aller « pour elle » ?
104706″ style= »display:inline; »>

Pour elle

Format : MKV
Découpé avec : Winrar

Pour elle

Pour.Elle.2008.FRENCH.720p.BluRay.x264.DTS-NOTAG

(5714 Mo)

[Liens Interchangeables entre hébergeurs: 5x 1000 Mo + 1x 714 Mo]

Uptobox
Télécharger

Uplea
Télécharger

1fichier
Télécharger

Uploaded
Télécharger

Rapidgator
Télécharger

TurboBit
Télécharger

[ Liens Premium ]

Uptobox
Télécharger

Uplea
Télécharger

1fichier
Télécharger

Uploaded
Télécharger

TurboBit
Télécharger

NFO :

Afficher / Masquer le texte d7f1ba9d11eed7b941ce15aae4115f07″ class= »text_spoiler » style= »display:none; »>Pour.Elle.2008.FRENCH.720p.BluRay.x264.DTS-NOTAG.zone-telechargement.com.mkv
Format : Matroska
Format version : Version 4 / Version 2
File size : 5.58 GiB
Duration : 1h 36mn
Overall bit rate : 8 274 Kbps
Encoded date : UTC 2015-11-09 10:03:19
Writing application : mkvmerge v7.4.0 (‘Circles’) 64bit built on Dec 12 2014 12:19:56
Writing library : libebml v1.3.0 + libmatroska v1.4.1
DURATION : 01:36:33.312000000
NUMBER_OF_FRAMES : 540987
NUMBER_OF_BYTES : 1088465844
_STATISTICS_WRITING_APP : mkvmerge v7.4.0 (‘Circles’) 64bit built on Dec 12 2014 12:19:56
_STATISTICS_WRITING_DATE_UTC : 2015-11-09 10:03:19
_STATISTICS_TAGS : BPS DURATION NUMBER_OF_FRAMES NUMBER_OF_BYTES

Video
ID : 1
Format : AVC
Format/Info : Advanced Video Codec
Format profile : [email protected]
Format settings, CABAC : Yes
Format settings, ReFrames : 6 frames
Codec ID : V_MPEG4/ISO/AVC
Duration : 1h 36mn
Bit rate : 6 601 Kbps
Width : 1 280 pixels
Height : 546 pixels
Display aspect ratio : 2.35:1
Frame rate mode : Constant
Frame rate : 23.976 fps
Color space : YUV
Chroma subsampling : 4:2:0
Bit depth : 8 bits
Scan type : Progressive
Bits/(Pixel*Frame) : 0.394
Stream size : 4.45 GiB (80%)
Writing library : x264 core 113 r1884 7313bb5
Encoding settings : cabac=1 / ref=6 / deblock=1:-3:-3 / analyse=0x3:0x113 / me=tesa / subme=9 / psy=1 / psy_rd=1.10:0.00 / mixed_ref=1 / me_range=24 / chroma_me=1 / trellis=2 / 8x8dct=1 / cqm=0 / deadzone=21,11 / fast_pskip=0 / chroma_qp_offset=-2 / threads=6 / sliced_threads=0 / nr=0 / decimate=1 / interlaced=0 / constrained_intra=0 / bframes=7 / b_pyramid=2 / b_adapt=2 / b_bias=0 / direct=1 / weightb=1 / open_gop=0 / weightp=2 / keyint=250 / keyint_min=23 / scenecut=40 / intra_refresh=0 / rc=crf / mbtree=0 / crf=16.7 / qcomp=0.60 / qpmin=10 / qpmax=51 / qpstep=4 / ip_ratio=1.40 / pb_ratio=1.30 / aq=1:0.80
Language : French
Default : Yes
Forced : No
DURATION : 01:36:33.246000000
NUMBER_OF_FRAMES : 138355
NUMBER_OF_BYTES : 4901748029
_STATISTICS_WRITING_APP : mkvmerge v7.4.0 (‘Circles’) 64bit built on Dec 12 2014 12:19:56
_STATISTICS_WRITING_DATE_UTC : 2015-11-09 10:03:19
_STATISTICS_TAGS : BPS DURATION NUMBER_OF_FRAMES NUMBER_OF_BYTES

Audio
ID : 2
Format : DTS
Format/Info : Digital Theater Systems
Mode : 16
Format settings, Endianness : Big
Codec ID : A_DTS
Duration : 1h 36mn
Bit rate mode : Constant
Bit rate : 1 509 Kbps
Channel count : 6 channels
Channel positions : Front: L C R, Side: L R, LFE
Sampling rate : 48.0 KHz
Bit depth : 16 bits
Compression mode : Lossy
Stream size : 1.02 GiB (18%)
Language : French
Default : No
Forced : No