Telecharger Predator [DVDRiP] French

(TRUEFRENCH = Vraie voix française)

BLURAY 1080p 3D | TRUEFRENCH

Predator

Predator

Predator

Origine du film : Américain
Réalisateur : John McTiernan
Acteurs : Arnold Schwarzenegger, Carl Weathers, Elpidia Carillo
Genre : Fantastique, Action
Durée : 1h47min
Date de sortie Bluray 3D : 18 Décembre 2013
Année de production : 1987
Note spectateurs : Predator

; »>3,7/5 (10 122)
Bande annonce :

cc78727d500f5ba5ddfe8edd6def8b15

19418843″>Cliquez-ici pour voir la bande annonce cc78727d500f5ba5ddfe8edd6def8b15″> 19418843

cc78727d500f5ba5ddfe8edd6def8b15

Predator

Parti à la recherche d'une équipe de conseillers militaires américains dans la forêt équatorienne, un commando de mercenaires dirigé par Dutch Schaefer est attaqué par un ennemi invisible et indestructible. 40409″ style= »display:inline; »>

Qualité : BLURAY 1080p 3D
Format : MKV
Langue : Français
Découpé avec : Winrar
Nombre de fichiers : 8 Fichiers
Taille des fichiers : 1000 Mo 511 Mo

[Liens Interchangeables]

PREDATOR 3D 1080P FRENCH AC3 HALF-SBS LNA3D ( 7511 Mo)

Télécharger le Sample : Vérifier la qualité sur votre Télé 3D (20 Mo)

1fichier
Télécharger

Uptobox
Télécharger

Free
Upload en panne

Uploaded
Télécharger

Rapidgator
Télécharger

TurboBit
Télécharger

[ 1 lien Premium – 7,5 Go ]

1fichier Premium
Télécharger

Uptobox Premium
Télécharger

Free Premium
Upload en panne

TurboBit Premium
Télécharger

[ 2 liens Premium – 4,5 Go 3 Go ]

Uploaded Premium
Partie 1
Partie 2

cloudZer Premium
Partie 1
Partie 2

NFO :

Afficher / Masquer le texte fd62a847a77b05dad21ce27824659c74″ class= »text_spoiler » style= »display:none; »>General
Unique ID : 209608484191464946532491055751150190340 (0x9DB120294CEF97A0A57A65F90B483F04)
Complete name : D:new releasePREDATOR 3D 1080P FRENCH AC3 HALF-SBS LNA3DPREDATOR 3D 1080P FRENCH AC3 HALF-SBS LNA3D.mkv
Format : Matroska
Format version : Version 4 / Version 2
File size : 7.34 GiB
Duration : 1h 46mn
Overall bit rate : 9 854 Kbps
Movie name : PREDATOR 3D 1080P FRENCH AC3 HALF-SBS LNA3D
Encoded date : UTC 2013-12-09 01:17:45
Writing application : mkvmerge v6.1.0 ('Old Devil') built on Mar 2 2013 14:32:37
Writing library : libebml v1.3.0 libmatroska v1.4.0

Video
ID : 1
Format : AVC
Format/Info : Advanced Video Codec
Format profile : [email protected]
Format settings, CABAC : Yes
Format settings, ReFrames : 2 frames
Codec ID : V_MPEG4/ISO/AVC
Duration : 1h 46mn
Bit rate : 9 210 Kbps
Width : 1 920 pixels
Height : 1 080 pixels
Display aspect ratio : 16:9
Frame rate mode : Constant
Frame rate : 23.976 fps
Color space : YUV
Chroma subsampling : 4:2:0
Bit depth : 8 bits
Scan type : Progressive
Bits/(Pixel*Frame) : 0.185
Stream size : 6.86 GiB (93%)
Writing library : x264 core
Default : Yes
Forced : No
Color primaries : BT.709
Transfer characteristics : BT.709
Matrix coefficients : BT.709

Audio
ID : 2
Format : AC-3
Format/Info : Audio Coding 3
Mode extension : CM (complete main)
Format settings, Endianness : Big
Codec ID : A_AC3
Duration : 1h 46mn
Bit rate mode : Constant
Bit rate : 448 Kbps
Channel(s) : 6 channels
Channel positions : Front: L C R, Side: L R, LFE
Sampling rate : 48.0 KHz
Bit depth : 16 bits
Compression mode : Lossy
Delay relative to video : 28ms
Stream size : 342 MiB (5%)
Language : French
Default : Yes
Forced : No