Telecharger Prince of Persia : les sables du temps [BLURAY 720p] French

(TRUEFRENCH = Vraie voix française)

BLURAY 720p | MULTiLANGUES (Avec TRUEFRENCH) | DTS

Prince of Persia : les sables du temps

Prince of Persia : les sables du temps

Prince of Persia : les sables du temps

Origine du film : Américain
Réalisateur : Mike Newell
Acteurs : Jake Gyllenhaal, Gemma Arterton, Ben Kingsley
Genre : Aventure, Action
Durée : 2h 6min
Date de sortie : 26 mai 2010
Année de production : 2010
Titre Original : Prince of Persia: The Sands of Time
Distribué par : Walt Disney Studios Motion Pictures France
Note presse : Prince of Persia : les sables du temps 2,6/5
Note spectateurs : Prince of Persia : les sables du temps 3,5/5 (11 781)
Bande annonce :

c850e3063f48f28912fd4eb3b1a97cfa

18964593″>Cliquez-ici pour voir la bande annonce c850e3063f48f28912fd4eb3b1a97cfa »> 18964593

c850e3063f48f28912fd4eb3b1a97cfa

Prince of Persia : les sables du temps

Un prince rebelle est contraint d'unir ses forces avec une mystérieuse princesse pour affronter ensemble les forces du mal et protéger une dague antique capable de libérer les Sables du temps, un don de dieu qui peut inverser le cours du temps et permettre à son possesseur de régner en maître absolu sur le monde.

Nom de la release : Prince Of Persia 2010 720p DTS Bluray x264-STEAL 19694″ style= »display:inline; »>

Prince of Persia : les sables du temps

Qualité : BLURAY 720p
Format : MKV
Langue : Anglais, Français
Sous-titre : Français
Découpé avec : Winrar
Nombre de fichiers : 8 Fichiers
Taille des fichiers : 1000 Mo 669 Mo
Taille totale : 7669 Mo

Prince of Persia : les sables du temps

[Liens Interchangeables]

1fichier.com
Télécharger

Uptobox.com
Télécharger

Uploaded
Télécharger

Rapidgator
Télécharger

TurboBit
Télécharger

[1 lien PREMIUM]

1fichier.com
Télécharger

Uptobox.com
Télécharger

Uploaded
Télécharger

Rapidgator
Télécharger

TurboBit
Télécharger

NFO :

Afficher / Masquer le texte 2e15f187aa9c50774bca6985040b8a21″ class= »text_spoiler » style= »display:none; »>General
Complete name :Prince Of Persia 2010 720p DTS Bluray x264-STEAL.mkv
Format : Matroska
Format version : Version 4 / Version 2
File size : 7.49 GiB
Duration : 1h 55mn
Overall bit rate : 9 253 Kbps
Movie name : Prince Of Persia 2013 High [email protected] Resolution 1280p/ 720p Frame rate 23.976 fps Release Blondin000
Encoded date : UTC 2013-01-26 07:34:31
Writing application : mkvmerge v6.0.0 ('Coming Up For Air') built on Jan 20 2013 10:36:39
Writing library : libebml v1.3.0 libmatroska v1.4.0

Video
ID : 1
Format : AVC
Format/Info : Advanced Video Codec
Format profile : [email protected]
Format settings, CABAC : Yes
Format settings, ReFrames : 9 frames
Codec ID : V_MPEG4/ISO/AVC
Duration : 1h 55mn
Bit rate : 6 049 Kbps
Width : 1 280 pixels
Height : 720 pixels
Display aspect ratio : 16:9
Frame rate : 23.976 fps
Color space : YUV
Chroma subsampling : 4:2:0
Bit depth : 8 bits
Scan type : Progressive
Bits/(Pixel*Frame) : 0.274
Stream size : 4.90 GiB (65%)
Title : Prince Of Persia 2013 High [email protected] Resolution 1280p/ 720p Frame rate 23.976 fps Release Blondin000
Writing library : x264 core 129 r2 1cffe9f
Encoding settings : cabac=1 / ref=9 / deblock=1:-3:-3 / analyse=0x3:0x113 / me=umh / subme=11 / psy=1 / psy_rd=0.93:0.23 / mixed_ref=1 / me_range=128 / chroma_me=1 / trellis=2 / 8x8dct=1 / cqm=0 / deadzone=6,6 / fast_pskip=0 / chroma_qp_offset=-3 / threads=12 / lookahead_threads=2 / sliced_threads=0 / nr=0 / decimate=0 / interlaced=0 / bluray_compat=0 / constrained_intra=0 / bframes=8 / b_pyramid=2 / b_adapt=2 / b_bias=0 / direct=3 / weightb=1 / open_gop=1 / weightp=2 / keyint=250 / keyint_min=23 / scenecut=40 / intra_refresh=0 / rc_lookahead=250 / rc=crf / mbtree=1 / crf=19.5 / qcomp=0.75 / qpmin=0 / qpmax=69 / qpstep=4 / vbv_maxrate=50000 / vbv_bufsize=50000 / crf_max=0.0 / nal_hrd=none / ip_ratio=1.40 / aq=2:0.75
Language : English
Default : Yes
Forced : No
Color primaries : BT.709-5, BT.1361, IEC 61966-2-4, SMPTE RP177
Transfer characteristics : BT.709-5, BT.1361
Matrix coefficients : BT.709-5, BT.1361, IEC 61966-2-4 709, SMPTE RP177

Audio #1
ID : 2
Format : DTS
Format/Info : Digital Theater Systems
Codec ID : A_DTS
Duration : 1h 55mn
Bit rate mode : Constant
Bit rate : 1 510 Kbps
Channel(s) : 6 channels
Channel positions : Front: L C R, Side: L R, LFE
Sampling rate : 48.0 KHz
Bit depth : 24 bits
Compression mode : Lossy
Stream size : 1.22 GiB (16%)
Title : VFF DTS 5.1_1510 Kbp/s
Language : French
Default : Yes
Forced : No

Audio #2
ID : 3
Format : DTS
Format/Info : Digital Theater Systems
Codec ID : A_DTS
Duration : 1h 55mn
Bit rate mode : Constant
Bit rate : 1 510 Kbps
Channel(s) : 6 channels
Channel positions : Front: L C R, Side: L R, LFE
Sampling rate : 48.0 KHz
Bit depth : 24 bits
Compression mode : Lossy
Stream size : 1.22 GiB (16%)
Title : VO DTS 5.1_1510 Kbp/s
Language : English
Default : No
Forced : No

Text #1
ID : 4
Format : PGS
Muxing mode : zlib
Codec ID : S_HDMV/PGS
Codec ID/Info : The same subtitle format used on BDs/HD-DVDs
Title : FR Complets Original Bluray
Language : French
Default : No
Forced : No

Text #2
ID : 5
Format : PGS
Muxing mode : zlib
Codec ID : S_HDMV/PGS
Codec ID/Info : The same subtitle format used on BDs/HD-DVDs
Title : FR Forced Original Bluray
Language : French
Default : No
Forced : No

Text #3
ID : 6
Format : UTF-8
Codec ID : S_TEXT/UTF8
Codec ID/Info : UTF-8 Plain Text
Title : FR Complets srt
Language : French
Default : No
Forced : No

Text #4
ID : 7
Format : UTF-8
Codec ID : S_TEXT/UTF8
Codec ID/Info : UTF-8 Plain Text
Title : FR Forced srt
Language : French
Default : Yes
Forced : Yes

Menu
00:00:00.000 : fr: 01. Dans royaume lointain
00:04:24.555 : fr: 02. Le conseil de guerre
00:08:37.391 : fr: 03. L'attaque d'Alamut
00:16:52.761 : fr: 04. La découverte de Tamina
00:22:51.578 : fr: 05. Fraternité et loyauté
00:29:07.787 : fr: 06. La dague
00:32:57.850 : fr: 07. La vallée des esclaves
00:36:58.173 : fr: 08. Négociations avec un Sheikh
00:40:31.094 : fr: 09. La fuite de Dastan et Tamina
00:46:08.264 : fr: 10. La confiance en Nizan
00:58:00.726 : fr: 11. Vision de la mort
01:00:17.029 : fr: 12. La tempête de sable
01:07:01.099 : fr: 13. L'Embuscade de l'oasis
01:10:47.742 : fr: 14. Restitution de la dague
01:15:46.457 : fr: 15. L'attaque des Hassanssins
01:20:37.122 : fr: 16. Retour à Alamut
01:27:37.292 : fr: 17. Une vague peu commune
01:32:19.366 : fr: 18. Les sables du temps
01:40:51.669 : fr: 19. Le destin
01:48:29.751 : fr: 20. G├⌐n├⌐rique de fin…

Jeux Gratuit
15354131_1854970838071206_1069261547_o.png