Telecharger Projet 666 [BLURAY 720p] French

(TRUEFRENCH = Vraie voix française)

Qualité BLURAY 720p | TRUEFRENCH

Projet 666

Projet 666

Projet 666

Origine du film : Américain
Réalisateur : Marcus Nispel
Acteurs : Stephen Lang, Brett Dier, Brittany Curran
Genre : Epouvante-horreur, Thriller
Durée : 1h35min
Année de production : 2015
Titre Original : Backmask
Note spectateurs : Projet 666

; »>2,7/5 (16)
Bande annonce :

e2bb9cf193647fc80b945cd71eb30575

19554678″>Cliquez-ici pour voir la bande annonce e2bb9cf193647fc80b945cd71eb30575″> 19554678

e2bb9cf193647fc80b945cd71eb30575

Projet 666

Lors d’une soirée, six adolescents trouvent un vieux disque vinyle et décident de le jouer à l’envers, dans l’espoir de découvrir un message subliminal. Un esprit diabolique fait alors son apparition et crée de nombreux dégâts en voguant d’un corps à un autre. Mais il semblerait que l’esprit veuille faire parvenir un message aux adolescents, pour les prévenir d’un danger beaucoup plus proche…
94274″ style= »display:inline; »>

Projet 666

Format : MKV

Projet 666

Exiter.TRUEFRENCH.2015.720p.BluRay.x264-SVR

(3780 Mo)

[Liens Interchangeables entre hébergeurs: 3x 1000 Mo + 1x 780 Mo]

Uptobox
Télécharger

Uplea
Télécharger

1fichier
Télécharger

Uploaded
Télécharger

Rapidgator
Télécharger

TurboBit
Télécharger

1 Lien Premium – 3.7 Go

Uptobox Premium
Télécharger

Uplea Premium
Télécharger

1fichier Premium
Télécharger

Uploaded Premium
Télécharger

TurboBit Premium
Télécharger

NFO :

Afficher / Masquer le texte 9be901413456e6eaec97a99261aee34f » class= »text_spoiler » style= »display:none; »>General
Unique ID : 70388550913344353780413080616814489767 (0x34F4577FD9E4287E38F02F312423B0A7)
Complete name : X:Exiter.TRUEFRENCH.2015.720p.BluRay.x264-SVR.mkv
Format : Matroska
Format version : Version 2
File size : 3.69 GiB
Duration : 1h 31mn
Overall bit rate : 5 778 Kbps
Encoded date : UTC 2015-08-09 14:11:27
Writing application : mkvmerge v5.6.0 (‘Kenya Kane’) built on May 28 2012 06:47:39
Writing library : libebml v1.2.2 + libmatroska v1.3.0

Video
ID : 1
Format : AVC
Format/Info : Advanced Video Codec
Format profile : [email protected]
Format settings, CABAC : Yes
Format settings, ReFrames : 5 frames
Muxing mode : Header stripping
Codec ID : V_MPEG4/ISO/AVC
Duration : 1h 31mn
Bit rate : 5 331 Kbps
Width : 1 280 pixels
Height : 720 pixels
Display aspect ratio : 16:9
Frame rate mode : Constant
Frame rate : 23.976 fps
Color space : YUV
Chroma subsampling : 4:2:0
Bit depth : 8 bits
Scan type : Progressive
Bits/(Pixel*Frame) : 0.241
Stream size : 3.33 GiB (90%)
Writing library : x264 core 148 r2579 73ae2d1
Encoding settings : cabac=1 / ref=5 / deblock=1:0:0 / analyse=0x3:0x113 / me=umh / subme=7 / psy=1 / psy_rd=1.00:0.00 / mixed_ref=1 / me_range=16 / chroma_me=1 / trellis=1 / 8x8dct=1 / cqm=0 / deadzone=21,11 / fast_pskip=0 / chroma_qp_offset=-2 / threads=12 / lookahead_threads=2 / sliced_threads=0 / nr=0 / decimate=1 / interlaced=0 / bluray_compat=0 / constrained_intra=0 / bframes=3 / b_pyramid=2 / b_adapt=2 / b_bias=0 / direct=3 / weightb=1 / open_gop=0 / weightp=2 / keyint=250 / keyint_min=23 / scenecut=40 / intra_refresh=0 / rc_lookahead=50 / rc=2pass / mbtree=1 / bitrate=5331 / ratetol=1.0 / qcomp=0.60 / qpmin=0 / qpmax=69 / qpstep=4 / cplxblur=20.0 / qblur=0.5 / ip_ratio=1.40 / aq=1:1.00
Default : Yes
Forced : No

Audio
ID : 2
Format : AC-3
Format/Info : Audio Coding 3
Mode extension : CM (complete main)
Format settings, Endianness : Big
Muxing mode : Header stripping
Codec ID : A_AC3
Duration : 1h 31mn
Bit rate mode : Constant
Bit rate : 448 Kbps
Channel(s) : 6 channels
Channel positions : Front: L C R, Side: L R, LFE
Sampling rate : 48.0 KHz
Compression mode : Lossy
Delay relative to video : 12ms
Stream size : 293 MiB (8%)
Language : French
Default : Yes
Forced : No