Telecharger Promised Land [BLURAY 720p] French

(TRUEFRENCH = Vraie voix française)

(AC3 = Dolby Digital 5.1)

BLURAY 720p | MULTiLANGUES (Avec TRUEFRENCH) | VO DTS | VFF AC3

Promised Land

Promised Land

Promised Land

Origine du film : Américain
Réalisateur : Gus Van Sant
Acteurs : Matt Damon, Rosemarie DeWitt, Frances McDormand
Genre : Drame
Durée : 1h 46min
Date de sortie : 17 avril 2013,
Année de production : 2013
Distribué par : Mars Distribution
Note presse : Promised Land 3,3/5
Note spectateurs : Promised Land 3,5/5 (1 355)
Bande annonce :

446d1e1d8a1d4eb1330c7c1b390d2eb1

19440061″>Cliquez-ici pour voir la bande annonce 446d1e1d8a1d4eb1330c7c1b390d2eb1″> 19440061

446d1e1d8a1d4eb1330c7c1b390d2eb1

Promised Land

Steve Butler, représentant d’un grand groupe énergétique, se rend avec Sue Thomason dans une petite ville de campagne. Les deux collègues sont convaincus qu’à cause de la crise économique qui sévit, les habitants ne pourront pas refuser leur lucrative proposition de forer leurs terres pour exploiter les ressources énergétiques qu’elles renferment. Ce qui s’annonçait comme un jeu d’enfant va pourtant se compliquer lorsqu’un enseignant respecté critique le projet, soutenu par un activiste écologiste qui affronte Steve aussi bien sur le plan professionnel que personnel…

Nom de la release : Promised.Land.2012.MULTi.TRUEFRENCH.720p.BluRay.x264-SPARKS 34847″ style= »display:inline; »>

Qualité : BLURAY 720p
Format : MKV
Sous-titre : Français
Découpé avec : Winrar
Nombre de fichiers : 5 Fichiers
Taille des fichiers : 1000 Mo 817 Mo
Taille totale : 4817 Mo

[5 Liens Interchangeables : 4 x 1000 Mo 1 x 817 Mo]

1fichier
Télécharger

Uptobox
Télécharger

Free
Télécharger

Uploaded
Télécharger

Rapidgator
Télécharger

TurboBit
Télécharger

[1 Lien PREMIUM : 1 x 4.70 GB]

1fichier
Télécharger

Uptobox
Télécharger

Free
Télécharger

Uploaded
Télécharger

Rapidgator
Télécharger

TurboBit
Télécharger

NFO :

Afficher / Masquer le texte 5ce067722e8b6dc47fac4453ac46f8d8″ class= »text_spoiler » style= »display:none; »>General
Complete name : Promised.Land.2012.MULTi.TRUEFRENCH.720p.BluRay.x264-SPARKS-www.Zone-Telechargement.com.mkv
Format : Matroska
Format version : Version 4 / Version 2
File size : 4.70 GiB
Duration : 1h 46mn
Overall bit rate : 6 319 Kbps
Movie name : JoseyW At Work
Encoded date : UTC 2013-09-09 08:41:47
Writing application : mkvmerge v6.2.0 ('Promised Land') built on Apr 28 2013 18:50:30
Writing library : libebml v1.3.0 libmatroska v1.4.0

Video
ID : 1
Format : AVC
Format/Info : Advanced Video Codec
Format profile : [email protected]
Format settings, CABAC : Yes
Format settings, ReFrames : 5 frames
Codec ID : V_MPEG4/ISO/AVC
Duration : 1h 46mn
Bit rate : 4 361 Kbps
Width : 1 280 pixels
Height : 696 pixels
Display aspect ratio : 1.85:1
Frame rate mode : Constant
Frame rate : 23.976 fps
Color space : YUV
Chroma subsampling : 4:2:0
Bit depth : 8 bits
Scan type : Progressive
Bits/(Pixel*Frame) : 0.204
Stream size : 3.15 GiB (67%)
Writing library : x264 core 130 r2273 b3065e6
Encoding settings : cabac=1 / ref=5 / deblock=1:0:0 / analyse=0x3:0x133 / me=umh / subme=7 / psy=1 / psy_rd=1.00:0.00 / mixed_ref=1 / me_range=16 / chroma_me=1 / trellis=1 / 8x8dct=1 / cqm=0 / deadzone=21,11 / fast_pskip=0 / chroma_qp_offset=-2 / threads=18 / lookahead_threads=3 / sliced_threads=0 / nr=0 / decimate=1 / interlaced=0 / bluray_compat=0 / constrained_intra=0 / bframes=3 / b_pyramid=2 / b_adapt=1 / b_bias=0 / direct=1 / weightb=1 / open_gop=0 / weightp=2 / keyint=250 / keyint_min=23 / scenecut=40 / intra_refresh=0 / rc_lookahead=40 / rc=2pass / mbtree=1 / bitrate=4361 / ratetol=1.0 / qcomp=0.60 / qpmin=0 / qpmax=69 / qpstep=4 / cplxblur=20.0 / qblur=0.5 / ip_ratio=1.40 / aq=1:1.00
Language : English
Default : Yes
Forced : No

Audio #1
ID : 2
Format : AC-3
Format/Info : Audio Coding 3
Mode extension : CM (complete main)
Format settings, Endianness : Big
Codec ID : A_AC3
Duration : 1h 46mn
Bit rate mode : Constant
Bit rate : 448 Kbps
Channel(s) : 6 channels
Channel positions : Front: L C R, Side: L R, LFE
Sampling rate : 48.0 KHz
Bit depth : 16 bits
Compression mode : Lossy
Delay relative to video : 400ms
Stream size : 342 MiB (7%)
Title : AC3 FR
Language : French
Default : No
Forced : No

Audio #2
ID : 3
Format : DTS
Format/Info : Digital Theater Systems
Mode : 16
Format settings, Endianness : Big
Codec ID : A_DTS
Duration : 1h 46mn
Bit rate mode : Constant
Bit rate : 1 509 Kbps
Channel(s) : 6 channels
Channel positions : Front: L C R, Side: L R, LFE
Sampling rate : 48.0 KHz
Bit depth : 24 bits
Compression mode : Lossy
Stream size : 1.12 GiB (24%)
Title : DTS EN
Language : English
Default : Yes
Forced : No

Text #1
ID : 4
Format : UTF-8
Codec ID : S_TEXT/UTF8
Codec ID/Info : UTF-8 Plain Text
Title : FR
Language : French
Default : Yes
Forced : No

Text #2
ID : 5
Format : UTF-8
Codec ID : S_TEXT/UTF8
Codec ID/Info : UTF-8 Plain Text
Title : EN
Language : English
Default : No
Forced : No

Menu
00:00:00.000 : en:00:00:00.000
00:06:50.994 : en:00:06:50.994
00:10:02.060 : en:00:10:02.060
00:15:42.942 : en:00:15:42.942
00:20:22.805 : en:00:20:22.805
00:26:18.327 : en:00:26:18.327
00:35:55.445 : en:00:35:55.445
00:41:18.643 : en:00:41:18.643
00:47:36.854 : en:00:47:36.854
00:50:22.269 : en:00:50:22.269
00:56:10.826 : en:00:56:10.826
01:01:59.674 : en:01:01:59.674
01:06:47.212 : en:01:06:47.212
01:11:37.376 : en:01:11:37.376
01:17:27.226 : en:01:17:27.226
01:23:44.061 : en:01:23:44.061
01:27:00.799 : en:01:27:00.799
01:32:14.529 : en:01:32:14.529
01:38:59.767 : en:01:38:59.767
01:42:05.578 : en:01:42:05.578