Telecharger Psychose [DVDRiP] French

Qualité BDRiP mkv | FRENCH

Psychose

Psychose

Psychose

Origine du film : Américain
Réalisateur : Alfred Hitchcock
Acteurs : Anthony Perkins, Janet Leigh, John Gavin
Genre : Thriller, Epouvante-horreur
Durée : 1h49min
Date de sortie : 2 novembre 1960
Année de production : 1960
Titre Original : Psycho
Note presse : Psychose 4,5/5
Note spectateurs : Psychose

; »>4,3/5 (17 890)
Bande annonce :

02f9a126149864b25ba30f25ad294a5f

19456590″>Cliquez-ici pour voir la bande annonce 02f9a126149864b25ba30f25ad294a5f »> 19456590

02f9a126149864b25ba30f25ad294a5f

Psychose

Marion Crane en a assez de ne pouvoir mener sa vie comme elle l’entend. Son travail ne la passionne plus, son amant ne peut l’épouser car il doit verser une énorme pension alimentaire le laissant sans le sou… Mais un beau jour, son patron lui demande de déposer 40 000 dollars à la banque. La tentation est trop grande, et Marion s’enfuit avec l’argent.Très vite la panique commence à se faire sentir. Partagée entre l’angoisse de se faire prendre et l’excitation de mener une nouvelle vie, Marion roule vers une destination qu’elle n’atteindra jamais. La pluie est battante, la jeune femme s’arrête près d’un motel, tenu par un sympathique gérant nommé Norman Bates, mais qui doit supporter le caractère possessif de sa mère.Après un copieux repas avec Norman, Marion prend toutes ses précautions afin de dissimuler l’argent. Pour se délasser de cette journée, elle prend une douche…
105253″ style= »display:inline; »>

Psychose

Format : MKV
Sous-titres : Forcé pour les passages en langue étrangère.

Psychose

Psycho.1960.FRENCH.SUBFORCED.BRRip.x264.AC3-FREAKY

(1400 Mo)

Uptobox
Télécharger

Uploaded
Télécharger

TurboBit
Télécharger

Rapidgator
Télécharger

Uplea
Télécharger

1fichier
Télécharger

NFO :

Afficher / Masquer le texte f2ffe07523dc6d3ea061db1e68c260fe » class= »text_spoiler » style= »display:none; »>General
Complete name : Psycho.1960.FRENCH.SUBFORCED.BRRip.x264.AC3-FREAKY.mkv
Format : Matroska
Format version : Version 2
File size : 1.37 GiB
Duration : 1h 48mn
Overall bit rate : 1 800 Kbps
Writing application : Lavf54.63.104
Writing library : Lavf54.63.104

Video
ID : 1
Format : AVC
Format/Info : Advanced Video Codec
Format profile : [email protected]
Format settings, CABAC : Yes
Format settings, ReFrames : 4 frames
Codec ID : V_MPEG4/ISO/AVC
Duration : 1h 48mn
Bit rate : 1 605 Kbps
Width : 720 pixels
Height : 384 pixels
Display aspect ratio : 1.85:1
Frame rate mode : Constant
Frame rate : 23.976 fps
Color space : YUV
Chroma subsampling : 4:2:0
Bit depth : 8 bits
Scan type : Progressive
Bits/(Pixel*Frame) : 0.242
Stream size : 1.20 GiB (87%)
Writing library : x264 core 123 r2189 35cf912
Encoding settings : cabac=1 / ref=3 / deblock=1:0:0 / analyse=0x3:0x133 / me=umh / subme=8 / psy=1 / psy_rd=1.00:0.00 / mixed_ref=1 / me_range=24 / chroma_me=1 / trellis=1 / 8x8dct=1 / cqm=0 / deadzone=21,11 / fast_pskip=1 / chroma_qp_offset=-2 / threads=3 / sliced_threads=0 / nr=0 / decimate=1 / interlaced=0 / bluray_compat=0 / constrained_intra=0 / bframes=3 / b_pyramid=2 / b_adapt=1 / b_bias=0 / direct=1 / weightb=1 / open_gop=0 / weightp=2 / keyint=250 / keyint_min=25 / scenecut=40 / intra_refresh=0 / rc_lookahead=40 / rc=2pass / mbtree=1 / bitrate=1605 / ratetol=1.0 / qcomp=0.60 / qpmin=10 / qpmax=51 / qpstep=4 / cplxblur=20.0 / qblur=0.5 / ip_ratio=1.40 / aq=1:1.00
Default : Yes
Forced : No

Audio
ID : 2
Format : AC-3
Format/Info : Audio Coding 3
Mode extension : CM (complete main)
Format settings, Endianness : Big
Codec ID : A_AC3
Duration : 1h 48mn
Bit rate mode : Constant
Bit rate : 192 Kbps
Channel(s) : 2 channels
Channel positions : Front: L R
Sampling rate : 48.0 KHz
Compression mode : Lossy
Stream size : 149 MiB (11%)
Language : French
Default : Yes
Forced : No

Source : Psycho.1960.MULTi.1080p.BluRay.x264-FHD