Télécharger Pureté Volée French

(TRUEFRENCH = Vraie voix française)

Qualité DVDRiP | TRUEFRENCH

Pureté Volée

Pureté Volée

Origine du film : Américain
Réalisateur : Alan Ball
Acteurs : Summer Bishil, Toni Collette, Aaron Eckhart
Genre : Drame
Durée : 2h4min
Année de production : 2007
Titre Original : Towelhead (Nothing is private)
Note spectateurs : Pureté Volée 3,5/5 (78)

Pureté Volée

Jasira désire quelque chose qu’elle n’arrive pas vraiment à définir : est-ce de l’affection, de l’amour, de la reconnaissance ou bien tout simplement une vie normale ? Malheureusement elle ne sait pas comment l’obtenir. Lorsque sa mère l’envoie à Houston pour vivre chez son père Libanais, un homme à l’éducation stricte qui s’emporte facilement, Jasira apprend rapidement à lui cacher certaines choses…
104257″ style= »display:inline; »>

Pureté Volée

Format : XviD

Pureté Volée

(704 Mo)

Uptobox
Télécharger

Uploaded
Télécharger

TurboBit
Télécharger

Rapidgator
Télécharger

Uplea
Télécharger

1fichier
Télécharger

NFO :

Afficher / Masquer le texte 812e6d42b444488d68a15d5fd572efd6″ class= »text_spoiler » style= »display:none; »>General
Complete name : E:miponyPureté Volée.www.zone-telechargement.com.avi
Format : AVI
Format/Info : Audio Video Interleave
File size : 705 MiB
Duration : 1h 51mn
Overall bit rate : 882 Kbps
Writing application : FairUse Wizard – http://fairusewizard.com
Writing library : The best and REALLY easy backup tool

Video
ID : 0
Format : MPEG-4 Visual
Format profile : Advanced [email protected]
Format settings, BVOP : 1
Format settings, QPel : No
Format settings, GMC : No warppoints
Format settings, Matrix : Default (MPEG)
Muxing mode : Packed bitstream
Codec ID : XVID
Codec ID/Hint : XviD
Duration : 1h 51mn
Bit rate : 744 Kbps
Width : 544 pixels
Height : 304 pixels
Display aspect ratio : 16:9
Frame rate : 25.000 fps
Color space : YUV
Chroma subsampling : 4:2:0
Bit depth : 8 bits
Scan type : Progressive
Compression mode : Lossy
Bits/(Pixel*Frame) : 0.180
Stream size : 595 MiB (84%)
Writing library : XviD 1.2.0.dev47 (UTC 2006-11-01)

Audio
ID : 1
Format : MPEG Audio
Format version : Version 1
Format profile : Layer 3
Mode : Joint stereo
Mode extension : MS Stereo
Codec ID : 55
Codec ID/Hint : MP3
Duration : 1h 51mn
Bit rate mode : Constant
Bit rate : 128 Kbps
Channel(s) : 2 channels
Sampling rate : 48.0 KHz
Compression mode : Lossy
Stream size : 102 MiB (15%)
Alignment : Aligned on interleaves
Interleave, duration : 40 ms (1.00 video frame)
Interleave, preload duration : 504 ms
Writing library : LAME3.97
Encoding settings : -m j -V 4 -q 2 -lowpass 17 -b 128

Jeux Gratuit
15354131_1854970838071206_1069261547_o.png