Telecharger Qiu Jin, la guerrière [BLURAY 720p] French

BLURAY 720p | MULTiLANGUES

Qiu Jin, la guerrière

Qiu Jin, la guerrière

Qiu Jin, la guerrière

Origine du film : Chinois, hong-kongais
Réalisateur : Herman Yau
Acteurs : Yi Huang, Yu-Hang To, Pat Ha
Genre : Action
Durée : 2h 0min
Année de production : 2011
Titre Original : Jian hu nu xia qiu jin
Bande annonce :

8837085047c7039bfa5223cbc8ba8bad

19412664″>Cliquez-ici pour voir la bande annonce 8837085047c7039bfa5223cbc8ba8bad »> 19412664

8837085047c7039bfa5223cbc8ba8bad

Qiu Jin, la guerrière

Née dans une famille d’érudits, Qiu Jin est une fille déterminée qui, dès son jeune âge, montre son fort caractère. Douée en équitation, au tir à l’arc et à la poésie, elle aime la rivalité. Ayant été témoin de la souffrance des Chinois dans la capitale, la haine de Qiu Jin à l’égard du gouvernement Qing s’amplifie. Sa détermination à renverser le pouvoir et sauver la nation est de plus en plus grande. Pour cela, elle se joint à un parti révolutionnaire secret. Ils ont l’intention d’assassiner le gouverneur de Qing. Mais les choses vont être toutes autres… 15861″ style= »display:inline; »>

Qualité : BLURAY 720p
Format : MKV
Langue : Multilangage
Sous-titre : Français
Découpé avec : Winrar
Nombre de fichiers : 7 Fichiers
Taille des fichiers : 999 Mo 131 Mo
Taille totale : 6125 Mo

[Liens Interchangeables]

Qiu.Jin.la.Guerrière.2011.MULTi.720p.BluRay.x264-ATeR (5,9 Go)

Uptobox
Télécharger

Uplea
Télécharger

1fichier
Télécharger

Uploaded
Télécharger

Rapidgator
Télécharger

TurboBit
Télécharger

[1 lien Premium – 5,9 Go]

Uptobox
Télécharger

Uplea
Télécharger

1fichier
Télécharger

TurboBit
Télécharger

NFO :

Afficher / Masquer le texte 4ed75ecb4d2d793ac69d40d7ab9956a0″ class= »text_spoiler » style= »display:none; »>Format : Matroska
Format version : Version 2
File size : 5.69 GiB
Duration : 1h 49mn
Overall bit rate : 7 418 Kbps
Movie name : Qiu Jin la guerrière
Encoded date : UTC 2012-11-02 09:34:04
Writing application : mkvmerge v5.8.0 ('No Sleep / Pillow') built on Sep 2 2012 15:37:04
Writing library : libebml v1.2.3 libmatroska v1.3.0

Video
ID : 1
Format : AVC
Format/Info : Advanced Video Codec
Format profile : [email protected]
Format settings, CABAC : Yes
Format settings, ReFrames : 7 frames
Muxing mode : Header stripping
Codec ID : V_MPEG4/ISO/AVC
Duration : 1h 49mn
Bit rate : 4 400 Kbps
Width : 1 280 pixels
Height : 720 pixels
Display aspect ratio : 16:9
Frame rate mode : Constant
Frame rate : 25.000 fps
Color space : YUV
Chroma subsampling : 4:2:0
Bit depth : 8 bits
Scan type : Progressive
Bits/(Pixel*Frame) : 0.191
Stream size : 3.26 GiB (57%)
Writing library : x264 core 120 r2146
Encoding settings : cabac=1 / ref=8 / deblock=1:-3:-3 / analyse=0x3:0x133 / me=umh / subme=9 / psy=1 / psy_rd=1.00:0.40 / mixed_ref=1 / me_range=64 / chroma_me=1 / trellis=2 / 8x8dct=1 / cqm=0 / deadzone=21,11 / fast_pskip=0 / chroma_qp_offset=-4 / threads=6 / sliced_threads=0 / nr=0 / decimate=1 / interlaced=0 / bluray_compat=0 / constrained_intra=0 / bframes=9 / b_pyramid=1 / b_adapt=2 / b_bias=0 / direct=3 / weightb=1 / open_gop=0 / weightp=2 / keyint=250 / keyint_min=25 / scenecut=40 / intra_refresh=0 / rc_lookahead=60 / rc=2pass / mbtree=1 / bitrate=4400 / ratetol=1.0 / qcomp=0.60 / qpmin=10 / qpmax=69 / qpstep=4 / cplxblur=20.0 / qblur=0.5 / vbv_maxrate=24000 / vbv_bufsize=24000 / nal_hrd=none / ip_ratio=1.40 / aq=1:1.00
Language : English
Default : Yes
Forced : No

Audio #1
ID : 2
Format : DTS
Format/Info : Digital Theater Systems
Muxing mode : Header stripping
Codec ID : A_DTS
Duration : 1h 49mn
Bit rate mode : Constant
Bit rate : 1 510 Kbps
Channel(s) : 6 channels
Channel positions : Front: L C R, Side: L R, LFE
Sampling rate : 48.0 KHz
Bit depth : 16 bits
Compression mode : Lossy
Stream size : 1.16 GiB (20%)
Language : Chinese
Default : Yes
Forced : No

Audio #2
ID : 3
Format : DTS
Format/Info : Digital Theater Systems
Muxing mode : Header stripping
Codec ID : A_DTS
Duration : 1h 49mn
Bit rate mode : Constant
Bit rate : 1 510 Kbps
Channel(s) : 6 channels
Channel positions : Front: L C R, Side: L R, LFE
Sampling rate : 48.0 KHz
Bit depth : 16 bits
Compression mode : Lossy
Stream size : 1.16 GiB (20%)
Language : French
Default : No
Forced : No

Text #1
ID : 4
Format : VobSub
Muxing mode : zlib
Codec ID : S_VOBSUB
Codec ID/Info : The same subtitle format used on DVDs
Language : French
Default : Yes
Forced : No

Text #2
ID : 5
Format : VobSub
Muxing mode : zlib
Codec ID : S_VOBSUB
Codec ID/Info : The same subtitle format used on DVDs
Title : Forced
Language : French
Default : No
Forced : No

Menu
00:00:00.000 : :Chapter 00 / :Chapter 00
00:06:45.600 : :Chapter 01 / :Chapter 01
00:18:05.840 : :Chapter 02 / :Chapter 02
00:28:16.840 : :Chapter 03 / :Chapter 03
00:35:18.040 : :Chapter 04 / :Chapter 04
00:45:16.200 : :Chapter 05 / :Chapter 05
00:55:12.560 : :Chapter 06 / :Chapter 06
01:05:03.680 : :Chapter 07 / :Chapter 07
01:15:48.680 : :Chapter 08 / :Chapter 08
01:26:22.440 : :Chapter 09 / :Chapter 09
01:34:08.120 : :Chapter 10 / :Chapter 10
01:48:24.480 : :Chapter 11 / :Chapter 11