Telecharger R.L. Stine’s Monsterville: The Cabinet of Souls [BLURAY 720p] French

(TRUEFRENCH = Vraie voix française)

Qualité BluRay 720p | TRUEFRENCH

R.L. Stine’s Monsterville: The Cabinet of Souls

R.L. Stine’s Monsterville: The Cabinet of Souls

R.L. Stine’s Monsterville: The Cabinet of Souls

Origine du film : Américain
Réalisateur : Peter DeLuise
Acteurs : Katherine McNamara, Dove Cameron, Ryan McCartan
Genre : Comédie
Durée : 01h25min
Date de sortie : 15 Octobre 2015
Année de production : 2015
Note spectateurs : R.L. Stine’s Monsterville: The Cabinet of Souls

; »>2,1/5 (212)
Titre Original : R.L. Stine’s Monsterville: The Cabinet of Souls

R.L. Stine’s Monsterville: The Cabinet of Souls

Quand Beth découvre une armoire mystérieuse dans laquelle sont enfermées les âmes d’adolescents perdus, nos amis devront arrêter le chaos avant d’être enfermés à tout jamais… 103864″ style= »display:inline; »>

R.L. Stine’s Monsterville: The Cabinet of Souls

Format : MKV

R.L. Stine’s Monsterville: The Cabinet of Souls

R.L.Stines.Monsterville.The.Cabinet.of.Souls.2015.TRUEFRENCH.720p.BluRay.DTS-ShowFr

(4022 Mo)

[Liens Interchangeables entre hébergeurs: 4x 1000 Mo + 1x 22 Mo]

Uptobox
Télécharger

Uplea
Télécharger

1fichier
Télécharger

Uploaded
Télécharger

Rapidgator
Télécharger

TurboBit
Télécharger

Liens Premium

Uptobox
Télécharger

Uplea
Télécharger

1fichier
Télécharger

Uploaded
Télécharger

Rapidgator
Télécharger

TurboBit
Télécharger

NFO :

Afficher / Masquer le texte ec701a5dfa780caba9b9bf9b627d7b08″ class= »text_spoiler » style= »display:none; »>General
Format : Matroska
Format version : Version 4 / Version 2
File size : 3.93 GiB
Duration : 1h 25mn
Overall bit rate : 6 549 Kbps
Encoded date : UTC 2015-11-05 21:00:03
Writing application : mkvmerge v8.3.0 (‘Over the Horizon’) 64bit
Writing library : libebml v1.3.1 + libmatroska v1.4.2
DURATION : 01:23:52.569000000
NUMBER_OF_FRAMES : 75
NUMBER_OF_BYTES : 230864
_STATISTICS_WRITING_APP : mkvmerge v8.3.0 (‘Over the Horizon’) 64bit
_STATISTICS_WRITING_DATE_UTC : 2015-11-05 21:00:03
_STATISTICS_TAGS : BPS DURATION NUMBER_OF_FRAMES NUMBER_OF_BYTES

Video
ID : 1
Format : AVC
Format/Info : Advanced Video Codec
Format profile : [email protected]
Format settings, CABAC : Yes
Format settings, ReFrames : 5 frames
Codec ID : V_MPEG4/ISO/AVC
Duration : 1h 25mn
Bit rate : 5 769 Kbps
Width : 1 280 pixels
Height : 720 pixels
Display aspect ratio : 16:9
Frame rate mode : Constant
Frame rate : 23.976 fps
Color space : YUV
Chroma subsampling : 4:2:0
Bit depth : 8 bits
Scan type : Progressive
Bits/(Pixel*Frame) : 0.261
Stream size : 3.39 GiB (86%)
Writing library : x264 core 148 r2638 7599210
Encoding settings : cabac=1 / ref=5 / deblock=1:1:1 / analyse=0x3:0x133 / me=umh / subme=8 / psy=1 / psy_rd=1.00:0.00 / mixed_ref=1 / me_range=16 / chroma_me=1 / trellis=1 / 8x8dct=1 / cqm=0 / deadzone=21,11 / fast_pskip=0 / chroma_qp_offset=-2 / threads=18 / lookahead_threads=3 / sliced_threads=0 / nr=0 / decimate=1 / interlaced=0 / bluray_compat=0 / constrained_intra=0 / bframes=3 / b_pyramid=2 / b_adapt=2 / b_bias=0 / direct=3 / weightb=1 / open_gop=0 / weightp=2 / keyint=240 / keyint_min=23 / scenecut=40 / intra_refresh=0 / rc_lookahead=50 / rc=2pass / mbtree=1 / bitrate=5769 / ratetol=1.0 / qcomp=0.60 / qpmin=0 / qpmax=69 / qpstep=4 / cplxblur=20.0 / qblur=0.5 / ip_ratio=1.40 / aq=1:1.00
Language : English
Default : Yes
Forced : No
DURATION : 01:25:52.022000000
NUMBER_OF_FRAMES : 123525
NUMBER_OF_BYTES : 3715354521
_STATISTICS_WRITING_APP : mkvmerge v8.3.0 (‘Over the Horizon’) 64bit
_STATISTICS_WRITING_DATE_UTC : 2015-11-05 21:00:03
_STATISTICS_TAGS : BPS DURATION NUMBER_OF_FRAMES NUMBER_OF_BYTES

Audio
ID : 2
Format : DTS
Format/Info : Digital Theater Systems
Mode : 16
Format settings, Endianness : Big
Codec ID : A_DTS
Duration : 1h 25mn
Bit rate mode : Constant
Bit rate : 768 Kbps
Channel(s) : 6 channels
Channel positions : Front: L C R, Side: L R, LFE
Sampling rate : 48.0 KHz
Bit depth : 24 bits
Compression mode : Lossy
Stream size : 472 MiB (12%)
Title : FR
Language : French
Default : Yes
Forced : No

Text #1
ID : 3
Format : PGS
Muxing mode : zlib
Codec ID : S_HDMV/PGS
Codec ID/Info : The same subtitle format used on BDs/HD-DVDs
Title : Complet
Language : French
Default : No
Forced : No

Text #2
ID : 4
Format : PGS
Muxing mode : zlib
Codec ID : S_HDMV/PGS
Codec ID/Info : The same subtitle format used on BDs/HD-DVDs
Title : Forced
Language : French
Default : Yes
Forced : No

Menu
00:00:00.000 : en:00:00:00.000
00:01:52.112 : en:00:01:52.112
00:06:07.450 : en:00:06:07.450
00:12:19.739 : en:00:12:19.739
00:16:38.497 : en:00:16:38.497
00:21:20.612 : en:00:21:20.612
00:27:48.917 : en:00:27:48.917
00:30:48.304 : en:00:30:48.304
00:34:03.541 : en:00:34:03.541
00:38:59.712 : en:00:38:59.712
00:45:17.005 : en:00:45:17.005
00:50:32.487 : en:00:50:32.487
00:53:50.894 : en:00:53:50.894
00:58:00.393 : en:00:58:00.393
01:01:09.707 : en:01:01:09.707
01:06:32.363 : en:01:06:32.363
01:10:13.459 : en:01:10:13.459
01:14:05.816 : en:01:14:05.816
01:18:10.435 : en:01:18:10.435
01:23:50.817 : en:01:23:50.817