Telecharger Rambo – Quadrilogie (Tetralogie) – (1982 à 2008) – L'intégrale [DVDRiP] French

(TRUEFRENCH = Vraie voix française)

BLURAY 1080p | MULTiLANGUES (Avec TRUEFRENCH) | DTS

Rambo - Quadrilogie (Tetralogie) - (1982 à 2008) - L'intégrale

Rambo - Quadrilogie (Tetralogie) - (1982 à 2008) - L'intégrale

Rambo - Quadrilogie (Tetralogie) - (1982 à 2008) - L'intégrale

Rambo 1:
Origine du film : Américain
Réalisateur : Ted Kotcheff
Acteurs : Sylvester Stallone, Richard Crenna, Brian Dennehy
Genre : Action
Durée : 1h37min
Date de sortie : 2 mars 1983
Année de production : 1982
Titre Original : First Blood
Note spectateurs : Rambo - Quadrilogie (Tetralogie) - (1982 à 2008) - L'intégrale

; »>3,5/5 (8 474)

Rambo 2:
Origine du film : Américain
Réalisateur : George Pan Cosmatos
Acteurs : Sylvester Stallone, Richard Crenna, Charles Napier
Genre : Action
Durée : 1h36min
Date de sortie : 16 octobre 1985
Année de production : 1985
Titre Original : Rambo : First Blood Part II
Note spectateurs : Rambo - Quadrilogie (Tetralogie) - (1982 à 2008) - L'intégrale 2,6/5 (4 131)

Rambo 3:
Origine du film : Américain
Réalisateur : Peter MacDonald
Acteurs : Sylvester Stallone, Richard Crenna, Marc de Jonge
Genre : Action
Durée : 1h40min
Date de sortie : 16 octobre 1988
Année de production : 1988
Note spectateurs : Rambo - Quadrilogie (Tetralogie) - (1982 à 2008) - L'intégrale 2,2/5 (3 799)

Rambo 4:
Origine du film : Allemand, américain
Réalisateur : Sylvester Stallone
Acteurs : Sylvester Stallone, Julie Benz, Paul Schulze
Genre : Action
Durée : 1h30min
Date de sortie : 6 février 2008
Année de production : 2008
Titre Original : Rambo
Distribué par : Metropolitan FilmExport
Note presse : Rambo - Quadrilogie (Tetralogie) - (1982 à 2008) - L'intégrale 2,6/5
Note spectateurs : Rambo - Quadrilogie (Tetralogie) - (1982 à 2008) - L'intégrale 3,4/5 (8 986)

Rambo - Quadrilogie (Tetralogie) - (1982 à 2008) - L'intégrale

Rambo 1:
John Rambo est un héros de la Guerre du Vietnam errant de ville en ville à la recherche de ses anciens compagnons d’armes.Alors qu’il s’apprête à traverser une petite ville pour s’y restaurer, le Shérif Will Teasle l’arrête pour vagabondage. Emprisonné et maltraité par des policiers abusifs, Rambo devient fou furieux et s’enfuit dans les bois après avoir blessé de nombreux agents.Traqué comme une bête, l’ex-soldat est contraint de tuer un policier en légitime défense. Dès lors, la police locale et la garde nationale déploient des moyens considérables pour retrouver le fugitif. Le Colonel Trautman, son mentor, intervient et essaie de dissuader les deux camps de s’entre-tuer pendant que Rambo, acculé et blessé, rentre en guerre contre les autorités.

Rambo 2:
John Rambo purge une peine de prison lorsque le Colonel Trautman lui donne la possibilité de sortir pour une mission délicate : avoir la preuve qu’il reste bel et bien des prisonniers américains au Vietnam.Supposé n’être qu’un observateur, Rambo désobéit aux ordres et tente de sauver un prisonnier. Murdock, le responsable de la mission, décide alors de l’abandonner en territoire ennemi, Rambo, seul, sans armes et face à l’ennemi, prépare sa vengeance et son retour au pays.

Rambo 3:
Le Colonel Trautman contacte Rambo dans sa retraite en Thaïlande pour qu’il l’accompagne dans une mission périlleuse en Afghanistan. Mais l’ex-soldat refuse afin de se consacrer aux moines bouddhistes qui l’ont recueilli.Lorsque, quelques jours plus tard, l’agent Griggs lui explique que Trautman a été capturé par le Colonel Zaysen, Rambo décide de sauver son ami. Il s’infiltre dans les lignes ennemies et découvre toute l’horreur du conflit qui oppose les moudjahidin à l’armée soviétique.Déterminé, il s’attaque à toute une armée sans oublier son objectif premier : récupérer Trautman.

Rambo 4:
John Rambo s’est retiré dans le nord de la Thaïlande, où il mène une existence simple dans les montagnes et se tient à l’écart de la guerre civile qui fait rage non loin de là, sur la frontière entre la Thaïlande et le Myanmar. Il pêche et capture des serpents venimeux pour les vendre.La violence du monde le rattrape lorsqu’un groupe de volontaires humanitaires mené par Sarah et Michael Bennett vient le trouver pour qu’il les guide jusqu’à un camp de réfugiés auquel ils veulent apporter une aide médicale et de la nourriture. Rambo finit par accepter et leur fait remonter la rivière, vers l’autre côté de la frontière.Deux semaines plus tard, le pasteur Arthur Marsh lui apprend que les volontaires ne sont pas revenus et que les ambassades refusent de l’aider à les retrouver. Rambo sait mieux que personne ce qu’il faut faire dans ce genre de situation…
38979″ style= »display:inline; »>

Qualité : BLURAY 1080p
Format : MKV
Langue : Anglais, Français
Sous-titre : Anglais, Français, Français Forcé
Découpé avec : Winrar
Taille totale : 52 GB

Rambo 1 (11.1 GB)

[12 Liens Interchangeables : 11 x 1000 Mo 1 x 374 Mo]

1fichier
Télécharger

Uptobox
Télécharger

Free
Télécharger

Uploaded
Télécharger

Rapidgator
Télécharger

TurboBit
Télécharger

[1 Lien PREMIUM : 1 x 11.1 GB]

1fichier
Télécharger

Uptobox
Télécharger

TurboBit
Télécharger

[3 Liens PREMIUM : 2 x 4 GB 1 x 3.1 GB]

Uploaded
Télécharger

NFO :

Afficher / Masquer le texte 79fb944cb4166003dd95bf0f22efcb69″ class= »text_spoiler » style= »display:none; »>General
Format : Matroska
File size : 11.1 GiB
Duration : 1h 33mn
Overall bit rate : 17.0 Mbps
Movie name : Rambo (1982) BR Rip x264 1080p VF MA VO MA – HDZ
Encoded date : UTC 2012-10-09 13:31:33
Writing application : mkvmerge v5.0.1 ('Es ist Sommer') built on Oct 13 2011 12:47:36
Writing library : libebml v1.2.2 libmatroska v1.3.0
Cover : Yes

Video
ID : 1
Format : AVC
Format/Info : Advanced Video Codec
Format profile : [email protected]
Format settings, CABAC : Yes
Format settings, ReFrames : 5 frames
Codec ID : V_MPEG4/ISO/AVC
Duration : 1h 33mn
Bit rate : 13.6 Mbps
Width : 1 920 pixels
Height : 818 pixels
Display aspect ratio : 2.35:1
Frame rate : 23.976 fps
Color space : YUV
Chroma subsampling : 4:2:0
Bit depth : 8 bits
Scan type : Progressive
Bits/(Pixel*Frame) : 0.361
Stream size : 8.85 GiB (80%)
Writing library : x264 core 128 r2M 198a7ea
Encoding settings : cabac=1 / ref=5 / deblock=1:-3:-3 / analyse=0x3:0x113 / me=umh / subme=10 / psy=1 / psy_rd=1.00:0.30 / mixed_ref=1 / me_range=64 / chroma_me=1 / trellis=2 / 8x8dct=1 / cqm=0 / deadzone=6,6 / fast_pskip=0 / chroma_qp_offset=-4 / threads=6 / lookahead_threads=1 / sliced_threads=0 / nr=0 / decimate=0 / interlaced=0 / bluray_compat=0 / constrained_intra=0 / bframes=5 / b_pyramid=2 / b_adapt=2 / b_bias=0 / direct=1 / weightb=1 / open_gop=1 / weightp=2 / keyint=250 / keyint_min=23 / scenecut=40 / intra_refresh=0 / rc_lookahead=250 / rc=crf / mbtree=1 / crf=19.0 / qcomp=0.75 / qpmin=0 / qpmax=69 / qpstep=4 / vbv_maxrate=50000 / vbv_bufsize=50000 / crf_max=0.0 / nal_hrd=none / ip_ratio=1.40 / aq=2:0.65
Language : English

Audio #1
ID : 2
Format : DTS
Format/Info : Digital Theater Systems
Format profile : MA / Core
Codec ID : A_DTS
Duration : 1h 33mn
Bit rate mode : Variable
Bit rate : 1 561 Kbps / 1 510 Kbps
Channel(s) : 6 channels
Channel positions : Front: L C R, Side: L R, LFE
Sampling rate : 48.0 KHz
Bit depth : 16 bits
Compression mode : Lossless / Lossy
Title : DTS Master Audio, French, 5.1 channels, 16 bits, 48kHz
Language : French

Audio #2
ID : 3
Format : DTS
Format/Info : Digital Theater Systems
Format profile : MA / Core
Codec ID : A_DTS
Duration : 1h 33mn
Bit rate mode : Variable
Bit rate : 1 561 Kbps / 1 510 Kbps
Channel(s) : 6 channels
Channel positions : Front: L C R, Side: L R, LFE
Sampling rate : 48.0 KHz
Bit depth : 16 bits
Compression mode : Lossless / Lossy
Title : DTS Master Audio, English, 5.1 channels, 16 bits, 48kHz
Language : English

Text #1
ID : 4
Format : UTF-8
Codec ID : S_TEXT/UTF8
Codec ID/Info : UTF-8 Plain Text
Title : Franτais ForcΘs
Language : French

Text #2
ID : 5
Format : UTF-8
Codec ID : S_TEXT/UTF8
Codec ID/Info : UTF-8 Plain Text
Title : Franτais Complets
Language : French

Text #3
ID : 6
Format : UTF-8
Codec ID : S_TEXT/UTF8
Codec ID/Info : UTF-8 Plain Text
Title : English Full
Language : English

Menu
00:00:00.000 : en:Main Credits
00:04:59.674 : en:Served Together
00:09:53.843 : en:The Law
00:17:36.555 : en:Concealed Weapon
00:23:19.481 : en:"Your Name?"
00:30:46.427 : en:Fingerprints
00:36:53.920 : en:Escape
00:42:11.946 : en:Tailing Rambo
00:48:37.539 : en:Fleeing Justice
00:53:55.273 : en:Free Fall
01:00:01.431 : en:War Hero
01:08:01.744 : en:Decoy
01:13:48.006 : en:Weakening the Enemy
01:17:42.366 : en:Colonel Samuel Trautman
01:22:46.544 : en:Defuse the Situation
01:29:44.337 : en:Drew First Blood
01:33:16.382 : en:No Shooting

Rambo 2 (12.6 GB)

[13 Liens Interchangeables : 12 x 1000 Mo 1 x 978 Mo]

1fichier
Télécharger

Uptobox
Télécharger

Free
Télécharger

Uploaded
Télécharger

Rapidgator
Télécharger

TurboBit
Télécharger

[1 Lien PREMIUM : 1 x 12.6 GB]

1fichier
Télécharger

Uptobox
Télécharger

TurboBit
Télécharger

[3 Liens PREMIUM : 2 x 4.29 GB 1 x 4.07 GB]

Uploaded
Télécharger

NFO :

Afficher / Masquer le texte 3b55d31e72950af450b5552642211223″ class= »text_spoiler » style= »display:none; »>General
Format : Matroska
File size : 12.7 GiB
Duration : 1h 36mn
Overall bit rate : 18.9 Mbps
Movie name : Rambo II (1985) BR Rip x264 1080p VF MA VO MA – HDZ
Encoded date : UTC 2012-10-10 07:52:00
Writing application : mkvmerge v5.0.1 ('Es ist Sommer') built on Oct 13 2011 12:47:36
Writing library : libebml v1.2.2 libmatroska v1.3.0
Cover : Yes

Video
ID : 1
Format : AVC
Format/Info : Advanced Video Codec
Format profile : [email protected]
Format settings, CABAC : Yes
Format settings, ReFrames : 5 frames
Codec ID : V_MPEG4/ISO/AVC
Duration : 1h 36mn
Bit rate : 15.4 Mbps
Width : 1 920 pixels
Height : 818 pixels
Display aspect ratio : 2.35:1
Frame rate : 23.976 fps
Color space : YUV
Chroma subsampling : 4:2:0
Bit depth : 8 bits
Scan type : Progressive
Bits/(Pixel*Frame) : 0.409
Stream size : 10.3 GiB (81%)
Writing library : x264 core 128 r2M 198a7ea
Encoding settings : cabac=1 / ref=5 / deblock=1:-3:-3 / analyse=0x3:0x113 / me=umh / subme=10 / psy=1 / psy_rd=1.00:0.30 / mixed_ref=1 / me_range=64 / chroma_me=1 / trellis=2 / 8x8dct=1 / cqm=0 / deadzone=6,6 / fast_pskip=0 / chroma_qp_offset=-4 / threads=12 / lookahead_threads=2 / sliced_threads=0 / nr=0 / decimate=0 / interlaced=0 / bluray_compat=0 / constrained_intra=0 / bframes=5 / b_pyramid=2 / b_adapt=2 / b_bias=0 / direct=1 / weightb=1 / open_gop=1 / weightp=2 / keyint=250 / keyint_min=23 / scenecut=40 / intra_refresh=0 / rc_lookahead=250 / rc=crf / mbtree=1 / crf=19.0 / qcomp=0.72 / qpmin=0 / qpmax=69 / qpstep=4 / vbv_maxrate=50000 / vbv_bufsize=50000 / crf_max=0.0 / nal_hrd=none / ip_ratio=1.40 / aq=3:0.65
Language : English

Audio #1
ID : 2
Format : DTS
Format/Info : Digital Theater Systems
Format profile : MA / Core
Codec ID : A_DTS
Duration : 1h 36mn
Bit rate mode : Variable
Bit rate : 1 561 Kbps / 1 510 Kbps
Channel(s) : 6 channels
Channel positions : Front: L C R, Side: L R, LFE
Sampling rate : 48.0 KHz
Bit depth : 16 bits
Compression mode : Lossless / Lossy
Title : DTS Master Audio, French, 5.1 channels, 16 bits, 48kHz
Language : French

Audio #2
ID : 3
Format : DTS
Format/Info : Digital Theater Systems
Format profile : MA / Core
Codec ID : A_DTS
Duration : 1h 36mn
Bit rate mode : Variable
Bit rate : 1 561 Kbps / 1 510 Kbps
Channel(s) : 6 channels
Channel positions : Front: L C R, Side: L R, LFE
Sampling rate : 48.0 KHz
Bit depth : 16 bits
Compression mode : Lossless / Lossy
Title : DTS Master Audio, English, 5.1 channels, 16 bits, 48kHz
Language : English

Text #1
ID : 4
Format : UTF-8
Codec ID : S_TEXT/UTF8
Codec ID/Info : UTF-8 Plain Text
Title : Franτais Complets
Language : French

Text #2
ID : 5
Format : UTF-8
Codec ID : S_TEXT/UTF8
Codec ID/Info : UTF-8 Plain Text
Title : English Full
Language : English

Menu
00:00:00.000 : en:Hellhole
00:03:35.506 : en:Main Credits
00:10:58.240 : en:Chosen One
00:17:16.201 : en:"It's Still Alive"
00:23:00.212 : en:"No Fear, No Regrets"
00:28:46.224 : en:Preparations
00:35:47.270 : en:Cutting Loose
00:40:54.827 : en:Connection
00:47:55.664 : en:Down the River
00:55:20.692 : en:Expendable
01:03:10.453 : en:Empty Camp
01:11:59.815 : en:No More Orders
01:18:35.711 : en:Eliminating the Enemy
01:22:23.855 : en:Next Morning
01:28:18.543 : en:Sold Out
01:32:35.675 : en:This Is the End
01:36:00.337 : en:Abort the Mission

Rambo 3 (13 GB)

[14 Liens Interchangeables : 13 x 1000 Mo 1 x 355 Mo]

1fichier
Télécharger

Uptobox
Télécharger

Free
Télécharger

Uploaded
Télécharger

Rapidgator
Télécharger

TurboBit
Télécharger

[1 Lien PREMIUM : 1 x 13 GB]

1fichier
Télécharger

Uptobox
Télécharger

TurboBit
Télécharger

[3 Liens PREMIUM : 2 x 4.50 GB 1 x 4.04 GB]

Uploaded
Télécharger

NFO :

Afficher / Masquer le texte 0b9c844fffcfd1d2994275fae7adb678″ class= »text_spoiler » style= »display:none; »>General
Format : Matroska
File size : 13.0 GiB
Duration : 1h 41mn
Overall bit rate : 18.4 Mbps
Movie name : Rambo III (1988) BR Rip x264 1080p VF MA VO MA – HDZ
Encoded date : UTC 2012-10-10 14:40:23
Writing application : mkvmerge v5.0.1 ('Es ist Sommer') built on Oct 13 2011 12:47:36
Writing library : libebml v1.2.2 libmatroska v1.3.0
Cover : Yes

Video
ID : 1
Format : AVC
Format/Info : Advanced Video Codec
Format profile : [email protected]
Format settings, CABAC : Yes
Format settings, ReFrames : 5 frames
Codec ID : V_MPEG4/ISO/AVC
Duration : 1h 41mn
Bit rate : 14.9 Mbps
Width : 1 920 pixels
Height : 818 pixels
Display aspect ratio : 2.35:1
Frame rate : 23.976 fps
Color space : YUV
Chroma subsampling : 4:2:0
Bit depth : 8 bits
Scan type : Progressive
Bits/(Pixel*Frame) : 0.395
Stream size : 10.6 GiB (81%)
Writing library : x264 core 128 r2M 198a7ea
Encoding settings : cabac=1 / ref=5 / deblock=1:-3:-3 / analyse=0x3:0x113 / me=umh / subme=10 / psy=1 / psy_rd=1.00:0.20 / mixed_ref=1 / me_range=64 / chroma_me=1 / trellis=2 / 8x8dct=1 / cqm=0 / deadzone=6,6 / fast_pskip=0 / chroma_qp_offset=-3 / threads=6 / lookahead_threads=1 / sliced_threads=0 / nr=0 / decimate=0 / interlaced=0 / bluray_compat=0 / constrained_intra=0 / bframes=5 / b_pyramid=2 / b_adapt=2 / b_bias=0 / direct=1 / weightb=1 / open_gop=1 / weightp=2 / keyint=250 / keyint_min=23 / scenecut=40 / intra_refresh=0 / rc_lookahead=250 / rc=crf / mbtree=1 / crf=19.0 / qcomp=0.70 / qpmin=0 / qpmax=69 / qpstep=4 / vbv_maxrate=50000 / vbv_bufsize=50000 / crf_max=0.0 / nal_hrd=none / ip_ratio=1.40 / aq=2:0.65
Language : English

Audio #1
ID : 2
Format : DTS
Format/Info : Digital Theater Systems
Format profile : MA / Core
Codec ID : A_DTS
Duration : 1h 41mn
Bit rate mode : Variable
Bit rate : 1 561 Kbps / 1 510 Kbps
Channel(s) : 6 channels
Channel positions : Front: L C R, Side: L R, LFE
Sampling rate : 48.0 KHz
Bit depth : 16 bits
Compression mode : Lossless / Lossy
Title : DTS Master Audio, French, 5.1 channels, 16 bits, 48kHz
Language : French

Audio #2
ID : 3
Format : DTS
Format/Info : Digital Theater Systems
Format profile : MA / Core
Codec ID : A_DTS
Duration : 1h 41mn
Bit rate mode : Variable
Bit rate : 1 561 Kbps / 1 510 Kbps
Channel(s) : 6 channels
Channel positions : Front: L C R, Side: L R, LFE
Sampling rate : 48.0 KHz
Bit depth : 16 bits
Compression mode : Lossless / Lossy
Title : DTS Master Audio, English, 5.1 channels, 16 bits, 48kHz
Language : English

Text #1
ID : 4
Format : UTF-8
Codec ID : S_TEXT/UTF8
Codec ID/Info : UTF-8 Plain Text
Title : Franτais ForcΘs
Language : French

Text #2
ID : 5
Format : UTF-8
Codec ID : S_TEXT/UTF8
Codec ID/Info : UTF-8 Plain Text
Title : Franτais Complets
Language : French

Text #3
ID : 6
Format : UTF-8
Codec ID : S_TEXT/UTF8
Codec ID/Info : UTF-8 Plain Text
Title : English Full
Language : English

Rambo 4 (15.1 GB)

[16 Liens Interchangeables : 15 x 1000 Mo 1 x 472 Mo]

1fichier
Télécharger

Uptobox
Télécharger

Free
Télécharger

Uploaded
Télécharger

Rapidgator
Télécharger

TurboBit
Télécharger

[1 Lien PREMIUM : 1 x 15.1 GB]

1fichier
Télécharger

Uptobox
Télécharger

TurboBit
Télécharger

[4 Liens PREMIUM : 3 x 4 GB 1 x 3.1 GB]

Uploaded
Télécharger

NFO :

Afficher / Masquer le texte 558ad585bca0789d7829a2c34c67346a » class= »text_spoiler » style= »display:none; »>General
Format : Matroska
File size : 15.1 GiB
Duration : 1h 39mn
Overall bit rate : 21.8 Mbps
Movie name : John Rambo (2008) BR Rip x264 1080p VF MA VO MA 7.1- HDZ
Encoded date : UTC 2012-10-14 09:26:30
Writing application : mkvmerge v5.0.1 ('Es ist Sommer') built on Oct 13 2011 12:47:36
Writing library : libebml v1.2.2 libmatroska v1.3.0
Cover : Yes

Video
ID : 1
Format : AVC
Format/Info : Advanced Video Codec
Format profile : [email protected]
Format settings, CABAC : Yes
Format settings, ReFrames : 5 frames
Codec ID : V_MPEG4/ISO/AVC
Duration : 1h 39mn
Bit rate : 17.8 Mbps
Width : 1 920 pixels
Height : 800 pixels
Display aspect ratio : 2.40:1
Frame rate : 23.976 fps
Color space : YUV
Chroma subsampling : 4:2:0
Bit depth : 8 bits
Scan type : Progressive
Bits/(Pixel*Frame) : 0.484
Stream size : 12.4 GiB (82%)
Writing library : x264 core 128 r2M 198a7ea
Encoding settings : cabac=1 / ref=5 / deblock=1:-3:-3 / analyse=0x3:0x113 / me=umh / subme=10 / psy=1 / psy_rd=1.00:0.30 / mixed_ref=1 / me_range=64 / chroma_me=1 / trellis=2 / 8x8dct=1 / cqm=0 / deadzone=6,6 / fast_pskip=0 / chroma_qp_offset=-4 / threads=12 / lookahead_threads=2 / sliced_threads=0 / nr=0 / decimate=0 / interlaced=0 / bluray_compat=0 / constrained_intra=0 / bframes=5 / b_pyramid=2 / b_adapt=2 / b_bias=0 / direct=1 / weightb=1 / open_gop=1 / weightp=2 / keyint=250 / keyint_min=23 / scenecut=40 / intra_refresh=0 / rc_lookahead=250 / rc=crf / mbtree=1 / crf=19.0 / qcomp=0.70 / qpmin=0 / qpmax=69 / qpstep=4 / vbv_maxrate=50000 / vbv_bufsize=50000 / crf_max=0.0 / nal_hrd=none / ip_ratio=1.40 / aq=3:0.70
Language : English

Audio #1
ID : 2
Format : DTS
Format/Info : Digital Theater Systems
Format profile : MA / Core
Codec ID : A_DTS
Duration : 1h 39mn
Bit rate mode : Variable
Bit rate : 1 927 Kbps / 1 510 Kbps
Channel(s) : 6 channels
Channel positions : Front: L C R, Side: L R, LFE
Sampling rate : 48.0 KHz
Bit depth : 16 bits
Compression mode : Lossless / Lossy
Delay relative to video : 8ms
Title : DTS Master Audio, 5.1 channels, 16 bits, 48kHz
Language : French

Audio #2
ID : 3
Format : DTS
Format/Info : Digital Theater Systems
Format profile : MA / Core
Codec ID : A_DTS
Duration : 1h 39mn
Bit rate mode : Variable
Bit rate : 1 606 Kbps / 1 510 Kbps
Channel(s) : 8 channels / 6 channels
Channel positions : Front: L C R, Side: L R, Back: L R, LFE / Front: L C R, Side: L R, LFE
Sampling rate : 48.0 KHz
Bit depth : 24 bits
Compression mode : Lossless / Lossy
Title : DTS Master Audio, English, 7.1 channels, 24 bits, 48kHz
Language : English

Text #1
ID : 4
Format : UTF-8
Codec ID : S_TEXT/UTF8
Codec ID/Info : UTF-8 Plain Text
Title : Franτais ForcΘs
Language : French

Text #2
ID : 5
Format : UTF-8
Codec ID : S_TEXT/UTF8
Codec ID/Info : UTF-8 Plain Text
Title : Franτais Complets
Language : French

Menu
00:00:00.000 : en:Execution-Style
00:06:05.365 : en:Dangerous Work
00:13:15.586 : en:Night Raid
00:19:38.844 : en:Heads Down
00:22:54.455 : en:Good Luck
00:30:59.023 : en:Under Siege
00:37:30.081 : en:Other People's Business
00:43:18.929 : en:Boat Man
00:48:02.713 : en:Who Are You?
00:50:31.069 : en:Where's The Girl?
00:55:54.225 : en:Not Without Her
01:03:08.910 : en:Hostage Takeover
01:08:06.040 : en:Setting Traps
01:16:30.877 : en:Fire Power
01:22:51.883 : en:Aftermath
01:27:18.149 : en:Going Back

Jeux Gratuit
15354131_1854970838071206_1069261547_o.png