Telecharger Reflets dans un oeil d'or [DVDRiP] French

(TRUEFRENCH = Vraie voix française)

Qualité DVDRiP | TRUEFRENCH

Reflets dans un oeil d'or

Reflets dans un oeil d'or

Origine du film : Américain
Réalisateur : John Huston
Acteurs : Marlon Brando, Elizabeth Taylor, Brian Keith
Genre : Drame
Durée : 1h50min
Date de sortie : 13 novembre 2002
Année de production : 1967
Titre Original : Reflections in a Golden Eye
Note spectateurs : Reflets dans un oeil d'or

; »>3,8/5 (134)
Bande annonce :

fb85957eaa4cff5eae570975dd441126

19493291″>Cliquez-ici pour voir la bande annonce fb85957eaa4cff5eae570975dd441126″> 19493291

fb85957eaa4cff5eae570975dd441126

Reflets dans un oeil d'or

Dans un fort de Géorgie, le major Penderton ne s’intéresse plus depuis longtemps à sa femme, qui a pour amant le colonel Langdon. Un jeune soldat, William, va venir perturber un peu plus cet univers trouble. Le major va se sentir irrésistiblement attiré par William, tandis que celui-ci tentera de séduire Leonora.
93352″ style= »display:inline; »>

Reflets dans un oeil d'or

Format : XviD

Reflets dans un oeil d'or

Reflets dans un oeil d’or 1967 FRENCH.DVDRiP.XviD.AC3-HuSh

(1360 Mo)

Uptobox
Télécharger

Uploaded
Télécharger

TurboBit
Télécharger

Rapidgator
Télécharger

Uplea
Télécharger

1fichier
Télécharger

NFO :

Afficher / Masquer le texte 9599047b4debe7920078411c588c2c32″ class= »text_spoiler » style= »display:none; »>■General

Complete name : C:UsersGandalf_HZDesktopTorrentReflets.Dans.Un.Oeil.D.Or.1967.FRENCH.DVDRiP.XviD.AC3-HuShReflets.Dans.Un.Oeil.D.Or.1967.FRENCH.DVDRiP.XviD.AC3-HuSh.avi

Format : AVI

Format/Info : Audio Video Interleave

File size : 1.37 GiB

Duration : 1h 49mn

Overall bit rate : 1 791 Kbps

Writing application : VirtualDubMod 1.5.10.2 (build 2542/release)

Writing library : VirtualDubMod build 2542/release

Video

ID : 0

Format : MPEG-4 Visual

Format profile : Advanced [email protected]

Format settings, BVOP : 1

Format settings, QPel : No

Format settings, GMC : No warppoints

Format settings, Matrix : Default (H.263)

Muxing mode : Packed bitstream

Codec ID : XVID

Codec ID/Hint : XviD

Duration : 1h 49mn

Bit rate : 1 592 Kbps

Width : 688 pixels

Height : 288 pixels

Display aspect ratio : 2.40:1

Frame rate : 23.976 fps

Color space : YUV

Chroma subsampling : 4:2:0

Bit depth : 8 bits

Scan type : Progressive

Compression mode : Lossy

Bits/(Pixel*Frame) : 0.335

Stream size : 1.21 GiB (89%)

Writing library : XviD 64

Audio

ID : 1

Format : AC-3

Format/Info : Audio Coding 3

Mode extension : CM (complete main)

Format settings, Endianness : Big

Codec ID : 2000

Duration : 1h 49mn

Bit rate mode : Constant

Bit rate : 192 Kbps

Channel(s) : 2 channels

Channel positions : Front: L R

Sampling rate : 48.0 KHz

Compression mode : Lossy

Stream size : 150 MiB (11%)

Alignment : Split accross interleaves

Interleave, duration : 64 ms (1.53 video frames)

Interleave, preload duratio : 500 ms