Télécharger Renaissances Blu-Ray 1080p/720p FRENCH

Qualité BLURAY 1080p | MULTiLANGUES (VFQ)

Renaissances

Renaissances

Renaissances

Origine du film : Américain
Réalisateur : Tarsem Singh
Acteurs : Ryan Reynolds, Ben Kingsley, Natalie Martinez
Genre : Science fiction, Thriller
Durée : 1h58min
Date de sortie : 29 juillet 2015
Année de production : 2015
Titre Original : Self/less
Distribué par : SND
Note presse : Renaissances 2,7/5
Note spectateurs : Renaissances 3,5/5 (1 682)
Bande annonce :

c9e9c120db4e537c0a2b5974feaf824d

19554673″>Cliquez-ici pour voir la bande annonce c9e9c120db4e537c0a2b5974feaf824d »> 19554673

c9e9c120db4e537c0a2b5974feaf824d

Renaissances

Que feriez-vous si on vous proposait de vivre éternellement ? Damian Hale, un richissime homme d’affaire new yorkais atteint d’une maladie incurable, se voit proposer une opération révolutionnaire par le mystérieux groupe Phénix : transférer son esprit dans un corps de substitution, « une enveloppe vide », un nouveau corps jeune et athlétique pour prolonger sa vie. Comment résister à une telle proposition ? Damian Hale procède au transfert et redécouvre les joies de la jeunesse, du luxe et des femmes dans son nouveau corps. Jusqu’au jour où Damian découvre un terrible secret sur l’opération. Un secret pour lequel Phénix est prêt à tuer.
102834″ style= »display:inline; »>

Renaissances

Format : MKV

Renaissances

Self.less.2015.MULTi.1080p.BluRay.x264-ShowFr

(10887 Mo)

[Liens Interchangeables entre hébergeurs: 10x 1000 Mo + 1x 887 Mo]

Uptobox
Télécharger

Uplea
Télécharger

1fichier
Télécharger

Uploaded
Télécharger

Rapidgator
Télécharger

TurboBit
Télécharger

1 Lien Premium – 10.6 Go

Uptobox Premium
Télécharger

Uplea Premium
Télécharger

1fichier Premium
Télécharger

Uploaded Premium
Télécharger

TurboBit Premium
Télécharger

NFO :

Afficher / Masquer le texte 4d4dc2fd8c661579fbf4a20144d93885″ class= »text_spoiler » style= »display:none; »>General
Unique ID : 247806275474196911112149617743708250962 (0xBA6DC0ACA3EE84FD0DCDE18B9CF36352)
Complete name : Self.less.2015.MULTi.1080p.BluRay.x264-ShowFr.mkv
Format : Matroska
Format version : Version 4 / Version 2
File size : 10.6 GiB
Duration : 1h 56mn
Overall bit rate : 13.0 Mbps
Movie name : RARBG.COM – Self.less.2015.720p.BluRay.x264.DTS-RARBG
Encoded date : UTC 2015-10-28 18:02:39
Writing application : mkvmerge v8.3.0 (‘Over the Horizon’) 64bit
Writing library : libebml v1.3.1 + libmatroska v1.4.2
DURATION : 01:48:56.954000000
NUMBER_OF_FRAMES : 1110
NUMBER_OF_BYTES : 34664
_STATISTICS_WRITING_APP : mkvmerge v8.3.0 (‘Over the Horizon’) 64bit
_STATISTICS_WRITING_DATE_UT : 2015-10-28 18:02:39
_STATISTICS_TAGS : BPS DURATION NUMBER_OF_FRAMES NUMBER_OF_BYTES

Video
ID : 2
Format : AVC
Format/Info : Advanced Video Codec
Format profile : [email protected]
Format settings, CABAC : Yes
Format settings, ReFrames : 4 frames
Codec ID : V_MPEG4/ISO/AVC
Duration : 1h 56mn
Bit rate : 10.8 Mbps
Nominal bit rate : 11.5 Mbps
Width : 1 920 pixels
Height : 816 pixels
Display aspect ratio : 2.35:1
Frame rate mode : Constant
Frame rate : 23.976 fps
Color space : YUV
Chroma subsampling : 4:2:0
Bit depth : 8 bits
Scan type : Progressive
Bits/(Pixel*Frame) : 0.288
Stream size : 8.82 GiB (83%)
Title : Self.less.2015.1080p.BluRay.x264.DTS-RARBG
Writing library : x264 core 144 r96 40bb568
Encoding settings : cabac=1 / ref=4 / deblock=1:-2:-2 / analyse=0x3:0x113 / me=umh / subme=7 / psy=1 / psy_rd=1.00:0.15 / mixed_ref=1 / me_range=16 / chroma_me=1 / trellis=1 / 8x8dct=1 / cqm=0 / deadzone=21,11 / fast_pskip=1 / chroma_qp_offset=-3 / threads=12 / lookahead_threads=3 / sliced_threads=0 / nr=0 / decimate=1 / interlaced=0 / bluray_compat=0 / constrained_intra=0 / bframes=3 / b_pyramid=2 / b_adapt=2 / b_bias=0 / direct=3 / weightb=1 / open_gop=0 / weightp=2 / keyint=250 / keyint_min=25 / scenecut=40 / intra_refresh=0 / rc_lookahead=50 / rc=abr / mbtree=1 / bitrate=11500 / ratetol=1.0 / qcomp=0.60 / qpmin=0 / qpmax=69 / qpstep=4 / vbv_maxrate=31250 / vbv_bufsize=31250 / nal_hrd=none / filler=0 / ip_ratio=1.40 / aq=1:1.00
Language : English
Default : Yes
Forced : No

Audio #1
ID : 1
Format : AC-3
Format/Info : Audio Coding 3
Mode extension : CM (complete main)
Format settings, Endianness : Big
Codec ID : A_AC3
Duration : 1h 56mn
Bit rate mode : Constant
Bit rate : 448 Kbps
Channel(s) : 6 channels
Channel positions : Front: L C R, Side: L R, LFE
Sampling rate : 48.0 KHz
Compression mode : Lossy
Delay relative to video : 16ms
Stream size : 375 MiB (3%)
Language : French
Default : Yes
Forced : No

Audio #2
ID : 3
Format : DTS
Format/Info : Digital Theater Systems
Mode : 16
Format settings, Endianness : Big
Codec ID : A_DTS
Duration : 1h 56mn
Bit rate mode : Constant
Bit rate : 1 509 Kbps
Channel(s) : 6 channels
Channel positions : Front: L C R, Side: L R, LFE
Sampling rate : 48.0 KHz
Bit depth : 24 bits
Compression mode : Lossy
Stream size : 1.23 GiB (12%)
Title : Self.less.2015.1080p.BluRay.x264.DTS-RARBG
Language : English
Default : No
Forced : No

Text
ID : 4
Format : UTF-8
Codec ID : S_TEXT/UTF8
Codec ID/Info : UTF-8 Plain Text
Language : English
Default : Yes
Forced : No
DURATION : 01:56:54.785000000
NUMBER_OF_FRAMES : 657636
NUMBER_OF_BYTES : 1323163632
_STATISTICS_WRITING_APP : mkvmerge v8.3.0 (‘Over the Horizon’) 64bit
_STATISTICS_WRITING_DATE_UT : 2015-10-28 18:02:39
_STATISTICS_TAGS : BPS DURATION NUMBER_OF_FRAMES NUMBER_OF_BYTES

Menu
00:00:00.000 : en:Chapter 01
00:05:04.512 : en:Chapter 02
00:12:01.429 : en:Chapter 03
00:16:34.952 : en:Chapter 04
00:26:06.106 : en:Chapter 05
00:34:01.372 : en:Chapter 06
00:39:54.767 : en:Chapter 07
00:51:01.308 : en:Chapter 08
00:57:39.539 : en:Chapter 09
01:06:32.279 : en:Chapter 10
01:12:23.464 : en:Chapter 11
01:18:22.030 : en:Chapter 12
01:27:18.691 : en:Chapter 13
01:34:21.489 : en:Chapter 14
01:42:48.537 : en:Chapter 15
01:50:56.191 : en:Chapter 16