Télécharger Résident débile French

(TRUEFRENCH = Vraie voix française)

Qualité DVDRiP | TRUEFRENCH

Résident débile

Résident débile

Résident débile

Origine du film : Français
Réalisateur : Laurent Coiffic
Acteurs : acteurs inconnusGenreComédieNationalitéFrançaisSpectateurs  3,1pour 10 notesdont 2 critiquesSe connecter sur mon AlloCinéTweet  
Genre : Comédie
Durée : 1h09min
Année de production : 2000
Note spectateurs : Résident débile 3,1/5 (10)

Résident débile

A la suite du massacre de Sandy et Bobby dans la forêt de Racon, le colonel Albert Wesker et son commando des S.T.A.R.S vont enquêter sur place. Le colonel fait appel à ses deux anciens collègues du Viêtnam, Spring Fellow Hawk et Dur Snake, tous deux reclus depuis la mort de St John en 1969. Mais leur nouvelle collaboration va rapidement laisser place au cauchemar : Heinrich Kroeger, Sniper Waf et Fluide Snake Octopus sont de retour… 38935″ style= »display:inline; »>

Qualité : DVDRiP
Format : XviD
Langue : Français

Resident Debile FRENCH DVDRip (700 Mo)

1fichier
Télécharger

Uptobox
Télécharger

Free
Télécharger

Uploaded
Télécharger

Rapidgator
Télécharger

TurboBit
Télécharger

NFO :

Afficher / Masquer le texte 22944e5a8ce8b4f6f03c6aacda471af5″ class= »text_spoiler » style= »display:none; »>General
Complete name : F:FilmResident Debile.avi
Format : AVI
Format/Info : Audio Video Interleave
File size : 699 MiB
Duration : 1h 8mn
Overall bit rate : 1 422 Kbps

Video
ID : 0
Format : MPEG-4 Visual
Format settings, BVOP : Yes
Format settings, QPel : No
Format settings, GMC : No warppoints
Format settings, Matrix : Default (MPEG)
Codec ID : XVID
Codec ID/Hint : XviD
Duration : 1h 8mn
Bit rate : 1 313 Kbps
Width : 720 pixels
Height : 416 pixels
Display aspect ratio : 1.731
Frame rate : 25.000 fps
Color space : YUV
Chroma subsampling : 4:2:0
Bit depth : 8 bits
Scan type : Progressive
Compression mode : Lossy
Bits/(Pixel*Frame) : 0.175
Stream size : 645 MiB (92%)
Title : NeoVideo92CF

Audio
ID : 1
Format : MPEG Audio
Format version : Version 1
Format profile : Layer 3
Mode : Joint stereo
Mode extension : MS Stereo
Codec ID : 55
Codec ID/Hint : MP3
Duration : 1h 8mn
Bit rate mode : Constant
Bit rate : 96.0 Kbps
Channel(s) : 2 channels
Sampling rate : 48.0 KHz
Compression mode : Lossy
Stream size : 47.2 MiB (7%)
Alignment : Split accross interleaves
Interleave, duration : 24 ms (0.60 video frame)
Title : NeoSound92CF0

Jeux Gratuit
15354131_1854970838071206_1069261547_o.png