Telecharger Resident Evil: Retribution [BLURAY 720p] French

(TRUEFRENCH = Vraie voix française)

BLURAY 720p | MULTiLANGUES (Avec TRUEFRENCH) | DTS

Resident Evil: Retribution

Resident Evil: Retribution

Resident Evil: Retribution

Origine du film : Canadien, allemand
Réalisateur : Paul W.S. Anderson
Acteurs : Milla Jovovich, Michelle Rodriguez, Kevin Durand
Genre : Action, Epouvante-horreur, Science fiction
Durée : 1h 35min
Date de sortie : 26 septembre 2012
Année de production : 2012
Distribué par : Metropolitan FilmExport
Note presse : Resident Evil: Retribution 1,9/5
Note spectateurs : Resident Evil: Retribution 2,3/5 (3 244)
Bande annonce :

2a3443b7577af00d11fb533bff0c11f8

19358244″>Cliquez-ici pour voir la bande annonce 2a3443b7577af00d11fb533bff0c11f8″> 19358244

2a3443b7577af00d11fb533bff0c11f8

Resident Evil: Retribution

Le terrifiant virus mis au point par Umbrella Corporation continue à faire des ravages partout sur Terre, transformant les populations en légions de morts-vivants affamés de chair humaine. Alice, l’ultime espoir de notre espèce, s’éveille au cœur du plus secret des complexes industriels d’Umbrella. Au gré de son exploration à haut risque et de ses découvertes, les zones d’ombre de sa vie s’éclairent… Plus que jamais, Alice continue à traquer les responsables de l’atroce infection. De Tokyo à New York, de Washington à Moscou, elle les pourchasse jusqu’à la révélation explosive qui va remettre en cause toutes ses certitudes. Avec l’aide de nouveaux alliés et d’anciens amis, Alice va devoir se battre pour survivre dans un monde hostile, au bord du néant. Le compte à rebours a commencé…

Nom de la release : Resident Evil Retribution 2012 720p DTS Bluray x264 STEAL 33017″ style= »display:inline; »>

Qualité : BLURAY 720p
Format : MKV
Langue : Anglais, Français
Sous-titre : Français
Découpé avec : Winrar
Nombre de fichiers : 6 Fichiers
Taille des fichiers : 1000 Mo 181 Mo
Taille totale : 5007 Mo

[6 Liens Interchangeables : 5 x 1000 Mo 1 x 181 Mo]

1fichier
Télécharger

Uptobox
Télécharger

Free
Télécharger

Uploaded
Télécharger

Rapidgator
Télécharger

TurboBit
Télécharger

[1 Lien PREMIUM : 1 x 5.06 GB]

1fichier
Télécharger

Uptobox
Télécharger

TurboBit
Télécharger

[2 Liens PREMIUM : 1 x 2.55 GB 1 x 2.51 GB]

Uploaded
Partie 1
Partie 2

NFO :

Afficher / Masquer le texte 3356b0b6234af3a73e47b345a83aee3b » class= »text_spoiler » style= »display:none; »>General

Resident Evil Retribution 2012 720p DTS Bluray x264 STEAL.mkv

Format : Matroska
Format version : Version 4 / Version 2
File size : 5.06 GiB
Duration : 1h 35mn
Overall bit rate : 7 566 Kbps
Movie name : Resident Evil Retribution 2012 High [email protected] Resolution 1280p/ 720p Frame rate 23.976 fps Release Blondin000
Encoded date : UTC 2013-02-03 12:10:55
Writing application : mkvmerge v6.0.0 ('Coming Up For Air') built on Jan 20 2013 10:36:39
Writing library : libebml v1.3.0 libmatroska v1.4.0

Video
ID : 1
Format : AVC
Format/Info : Advanced Video Codec
Format profile : [email protected]
Format settings, CABAC : Yes
Format settings, ReFrames : 9 frames
Codec ID : V_MPEG4/ISO/AVC
Duration : 1h 35mn
Bit rate : 4 398 Kbps
Width : 1 280 pixels
Height : 720 pixels
Display aspect ratio : 16:9
Frame rate mode : Constant
Frame rate : 23.976 fps
Color space : YUV
Chroma subsampling : 4:2:0
Bit depth : 8 bits
Scan type : Progressive
Bits/(Pixel*Frame) : 0.199
Stream size : 2.94 GiB (58%)
Title : Resident Evil Retribution 2012 High [email protected] Resolution 1280p/ 720p Frame rate 23.976 fps Release Blondin000
Writing library : x264 core 129 r2 1cffe9f
Encoding settings : cabac=1 / ref=9 / deblock=1:-3:-3 / analyse=0x3:0x113 / me=umh / subme=11 / psy=1 / psy_rd=0.95:0.25 / mixed_ref=1 / me_range=128 / chroma_me=1 / trellis=2 / 8x8dct=1 / cqm=0 / deadzone=6,6 / fast_pskip=0 / chroma_qp_offset=-4 / threads=6 / lookahead_threads=1 / sliced_threads=0 / nr=0 / decimate=0 / interlaced=0 / bluray_compat=0 / constrained_intra=0 / bframes=5 / b_pyramid=2 / b_adapt=2 / b_bias=0 / direct=3 / weightb=1 / open_gop=1 / weightp=2 / keyint=250 / keyint_min=23 / scenecut=40 / intra_refresh=0 / rc_lookahead=250 / rc=crf / mbtree=1 / crf=17.5 / qcomp=0.75 / qpmin=0 / qpmax=69 / qpstep=4 / vbv_maxrate=50000 / vbv_bufsize=50000 / crf_max=0.0 / nal_hrd=none / ip_ratio=1.40 / aq=2:0.75
Default : Yes
Forced : No
Color primaries : BT.709
Transfer characteristics : BT.709
Matrix coefficients : BT.709

Audio #1
ID : 2
Format : DTS
Format/Info : Digital Theater Systems
Mode : 16
Format settings, Endianness : Big
Codec ID : A_DTS
Duration : 1h 35mn
Bit rate mode : Constant
Bit rate : 1 509 Kbps
Channel(s) : 6 channels
Channel positions : Front: L C R, Side: L R, LFE
Sampling rate : 48.0 KHz
Bit depth : 16 bits
Compression mode : Lossy
Stream size : 1.01 GiB (20%)
Title : VFF DTS 5.1_1510 Kbp/s
Language : French
Default : Yes
Forced : No

Audio #2
ID : 3
Format : DTS
Format/Info : Digital Theater Systems
Mode : 16
Format settings, Endianness : Big
Codec ID : A_DTS
Duration : 1h 35mn
Bit rate mode : Constant
Bit rate : 1 509 Kbps
Channel(s) : 6 channels
Channel positions : Front: L C R, Side: L R, LFE
Sampling rate : 48.0 KHz
Bit depth : 16 bits
Compression mode : Lossy
Stream size : 1.01 GiB (20%)
Title : VO DTS 5.1_1510 Kbp/s
Language : English
Default : No
Forced : No

Text #1
ID : 4
Format : PGS
Muxing mode : zlib
Codec ID : S_HDMV/PGS
Codec ID/Info : The same subtitle format used on BDs/HD-DVDs
Title : FR Complets Original Bluray
Language : French
Default : No
Forced : No

Text #2
ID : 5
Format : PGS
Muxing mode : zlib
Codec ID : S_HDMV/PGS
Codec ID/Info : The same subtitle format used on BDs/HD-DVDs
Title : FR Forced Original Bluray
Language : French
Default : No
Forced : No

Text #3
ID : 6
Format : UTF-8
Codec ID : S_TEXT/UTF8
Codec ID/Info : UTF-8 Plain Text
Title : FR Complets srt
Language : French
Default : No
Forced : No

Text #4
ID : 7
Format : UTF-8
Codec ID : S_TEXT/UTF8
Codec ID/Info : UTF-8 Plain Text
Title : FR Forced srt
Language : French
Default : Yes
Forced : Yes

Menu
00:00:00.000 : en:Chapitre 1
00:07:43.213 : en:Chapitre 2
00:14:32.830 : en:Chapitre 3
00:18:23.060 : en:Chapitre 4
00:24:24.421 : en:Chapitre 5
00:35:20.327 : en:Chapitre 6
00:39:14.894 : en:Chapitre 7
00:44:46.434 : en:Chapitre 8
00:50:27.566 : en:Chapitre 9
00:56:03.485 : en:Chapitre 10
01:00:16.738 : en:Chapitre 11
01:05:38.560 : en:Chapitre 12
01:08:38.239 : en:Chapitre 13
01:12:48.114 : en:Chapitre 14
01:20:40.794 : en:Chapitre 15
01:25:37.549 : en:Chapitre 16