Telecharger Resident Evil – Tetralogie [BLURAY 720p] French

(TRUEFRENCH = Vraie voix française)

BLURAY 720p | MULTiLANGUES (avec TRUEFRENCH) | DTS

Resident Evil - Tetralogie

Resident Evil - Tetralogie

Resident Evil - Tetralogie

Origine du film : Français, britannique, allemand
Réalisateur : Paul W.S. Anderson, Alexander Witt
Acteurs : (Milla Jovovich, Eric Mabius, Michelle Rodriguez) (Milla Jovovich, Sienna Guillory, Oded Fehr, Thomas Kretschmann, Jared Harris) (Milla Jovovich, Oded Fehr, Ali Larter, Iain Glen, Mike Epps)
Genre : Action, Epouvante-horreur, Science fiction
Durée : 1h 41min
Date de sortie : 3 avril 2002, 06 October 2004, 03 October 2007
Année de production : 2002, 2004, 2007
Distribué par : Metropolitan FilmExport
Note presse : Resident Evil - Tetralogie 2,8/5
Note spectateurs : Resident Evil - Tetralogie 2,6/5 (10078)

Resident Evil - Tetralogie

Resident Evil – Dans un immense laboratoire souterrain, ont lieu des recherches ultras secrètes, supervisées par des centaines de scientifiques. Lorsque l’alarme retentit, tout le monde croit à une simple simulation d’évacuation. Mais bientôt, l’horreur les rattrape. Un virus hautement mortel se propage à un rythme effréné dans les couloirs : en quelques minutes, il met fin à toute vie humaine. Au même moment, Alice se réveille dans un somptueux manoir. Ignorant comment elle a pu atterrir là, elle fait la rencontre de Matt, un policier. Avant même qu’ils n’aient pu trouver une explication logique à ces phénomènes étranges, un groupe d’intervention militaire, les S.T.A.R.S, débarque de nulle part et les oblige à les suivre. Ces derniers ont reçu l’ordre d’infiltrer le laboratoire et de neutraliser la Red Queen, le super-ordinateur devenu fou que l’on tient pour responsable du désastre.

Resident Evil : Apocalypse – Alice a survécu à l’effroyable cauchemar qui a dévasté le complexe scientifique ultrasecret d’Umbrella Corporation, mais elle n’est pas la seule à en être ressortie…Un virus mortel s’est abattu sur la ville de Raccoon et rien ne semble pouvoir lui échapper. Avec un groupe de survivants, Alice, dont le métabolisme a mystérieusement été modifié, doit affronter le pire. Certes, elle a gagné de nouveaux pouvoirs, elle est plus puissante, ses sens sont surmultipliés et sa dextérité est hallucinante, mais ça ne sera pas forcément suffisant… Elle est rejointe dans son combat par Jill Valentine, un ancien membre des forces spéciales d’Umbrella.Ensemble, elles vont tenter de résoudre les énigmes et faire face à une force maléfique, un ennemi absolu lancé sur leurs traces. Son nom ? Némésis. Son but ? Eliminer toute vie. Cette fois, s’échapper ne suffira pas. Il va falloir affronter…

Resident Evil : Extinction – Le virus expérimental mis au point par la toute-puissante Umbrella Corporation a détruit l’humanité, transformant la population du monde en zombies avides de chair humaine. Fuyant les villes, Carlos, L.J., Claire, K-Mart, Nurse Betty et quelques survivants ont pris la route dans un convoi armé, espérant retrouver d’autres humains non infectés et gagner l’Alaska, leur dernier espoir d’une terre préservée. Ils sont accompagnés dans l’ombre par Alice, une jeune femme sur laquelle Umbrella a mené autrefois de terribles expériences biogéniques qui, en modifiant son ADN, lui ont apporté des capacités surhumaines. Depuis le laboratoire d’Umbrella, le Dr. Isaacs les surveille. Il est prêt à tout pour retrouver celle qui représente l’accomplissement ultime des recherches de la firme, la seule personne qui rende possible la mise au point d’un remède : Alice. S’ils veulent avoir une chance, les survivants doivent échapper à la fois aux morts-vivants qui infestent le pays et à Umbrella Corporation.Pour Alice et ses compagnons d’infortune, le combat ne fait que commencer…
17398″ style= »display:inline; »>

Resident Evil - Tetralogie

Qualité : BLURAY 720p
Format : MKV
Langue : Anglais, Français
Langue : Français
Sous-titre : Français
Découpé avec : Winrar

Resident Evil - Tetralogie

Resident.Evil.2002.VO.VFF.DTS.720p.x264-STEAL

[8 Liens Interchangeables : 7 x 1000 Mo + 1 x 746 Mo]

1fichier
Télécharger

Uptobox
Télécharger

Free
Télécharger

Uploaded
Télécharger

Rapidgator
Télécharger

TurboBit
Télécharger

[1 Lien PREMIUM : 1 x 7.56 GB]

1fichier
Télécharger

Uptobox
Télécharger

TurboBit
Télécharger

[2 Liens PREMIUM]

Uploaded
Partie 1
Partie 2

NFO :

Afficher / Masquer le texte 158fb52ed80e5618c3b31266ab9b1e2a » class= »text_spoiler » style= »display:none; »>General
Format : Matroska
Format version : Version 2
File size : 7.56 GiB
Duration : 1h 40mn
Overall bit rate mode : Variable
Overall bit rate : 10.8 Mbps
Encoded date : UTC 2013-01-01 20:24:16
Writing application : mkvmerge v5.0.1 (‘Es ist Sommer’) built on Oct 13 2011 12:47:36
Writing library : libebml v1.2.2 + libmatroska v1.3.0

Video
ID : 1
Format : AVC
Format/Info : Advanced Video Codec
Format profile : [email protected]
Format settings, CABAC : Yes
Format settings, ReFrames : 9 frames
Codec ID : V_MPEG4/ISO/AVC
Duration : 1h 40mn
Bit rate mode : Variable
Bit rate : 7 542 Kbps
Maximum bit rate : 40.0 Mbps
Width : 1 280 pixels
Height : 720 pixels
Display aspect ratio : 16:9
Frame rate mode : Constant
Frame rate : 23.976 fps
Color space : YUV
Chroma subsampling : 4:2:0
Bit depth : 8 bits
Scan type : Progressive
Bits/(Pixel*Frame) : 0.341
Stream size : 5.30 GiB (70%)
Title : Resident Evil
Writing library : x264 core 129 r2 1cffe9f
Encoding settings : cabac=1 / ref=9 / deblock=1:-3:-3 / analyse=0x3:0x113 / me=umh / subme=11 / psy=1 / psy_rd=1.00:0.25 / mixed_ref=1 / me_range=128 / chroma_me=1 / trellis=2 / 8x8dct=1 / cqm=0 / deadzone=6,6 / fast_pskip=0 / chroma_qp_offset=-4 / threads=6 / lookahead_threads=1 / sliced_threads=0 / nr=0 / decimate=0 / interlaced=0 / bluray_compat=0 / constrained_intra=0 / bframes=8 / b_pyramid=2 / b_adapt=2 / b_bias=0 / direct=3 / weightb=1 / open_gop=1 / weightp=2 / keyint=250 / keyint_min=23 / scenecut=40 / intra_refresh=0 / rc_lookahead=250 / rc=crf / mbtree=1 / crf=18.0 / qcomp=0.75 / qpmin=0 / qpmax=69 / qpstep=4 / vbv_maxrate=50000 / vbv_bufsize=50000 / crf_max=0.0 / nal_hrd=none / ip_ratio=1.40 / aq=2:0.7
Default : Yes
Forced : No
Color primaries : BT.709
Transfer characteristics : BT.709
Matrix coefficients : BT.709

Audio #1
ID : 2
Format : DTS
Format/Info : Digital Theater Systems
Mode : 16
Format settings, Endianness : Big
Codec ID : A_DTS
Duration : 1h 40mn
Bit rate mode : Constant
Bit rate : 1 509 Kbps
Channel(s) : 6 channels
Channel positions : Front: L C R, Side: L R, LFE
Sampling rate : 48.0 KHz
Bit depth : 24 bits
Compression mode : Lossy
Stream size : 1.06 GiB (14%)
Title : VO DTS Audio English 1509 kbps 5.1 / 48 kHz / 1509 kbps / 24-bit
Language : English
Default : No
Forced : No

Audio #2
ID : 3
Format : DTS
Format/Info : Digital Theater Systems
Mode : 16
Format settings, Endianness : Big
Codec ID : A_DTS
Duration : 1h 40mn
Bit rate mode : Constant
Bit rate : 1 509 Kbps
Channel(s) : 6 channels
Channel positions : Front: L C R, Side: L R, LFE
Sampling rate : 48.0 KHz
Bit depth : 16 bits
Compression mode : Lossy
Delay relative to video : 500ms
Stream size : 1.06 GiB (14%)
Title : VFF DTS Audio French 1509 kbps 5.1 / 48 kHz / 1509 kbps / 16-bit
Language : French
Default : Yes
Forced : No

Text #1
ID : 4
Format : UTF-8
Codec ID : S_TEXT/UTF8
Codec ID/Info : UTF-8 Plain Text
Title : Complets
Language : French
Default : No
Forced : No

Text #2
ID : 5
Format : UTF-8
Codec ID : S_TEXT/UTF8
Codec ID/Info : UTF-8 Plain Text
Title : Forcés
Language : French
Default : Yes
Forced : Yes

Menu
00:00:00.000 : en:00:00:00.000
00:05:07.800 : en:00:05:20.946
00:08:00.720 : en:00:08:21.251
00:12:16.039 : en:00:12:47.475
00:16:38.759 : en:00:17:21.415
00:20:27.720 : en:00:21:20.154
00:25:54.359 : en:00:27:00.744
00:28:30.200 : en:00:29:43.240
00:33:14.760 : en:00:34:39.953
00:36:17.200 : en:00:37:50.185
00:44:02.920 : en:00:45:55.795
00:48:32.560 : en:00:50:36.951
00:53:20.999 : en:00:55:37.709
00:58:02.959 : en:01:00:31.711
01:04:51.559 : en:01:07:37.762
01:09:06.079 : en:01:12:03.152
01:12:55.960 : en:01:16:02.850
01:18:04.040 : en:01:21:24.088
01:23:57.440 : en:01:27:32.581
01:30:15.640 : en:01:34:06.933

Resident.Evil.Apocalypse.2004.VO.VFF.DTS.720p.x264-STEAL

[6 Liens Interchangeables : 5 x 1000 Mo + 1 x 441 Mo]

1fichier
Télécharger

Uptobox
Télécharger

Free
Télécharger

Uploaded
Télécharger

Rapidgator
Télécharger

TurboBit
Télécharger

[1 Lien PREMIUM : 1 x 5.31 GB]

1fichier
Télécharger

Uptobox
Télécharger

TurboBit
Télécharger

[2 Liens PREMIUM]

Uploaded
Partie 1
Partie 2

NFO:

Afficher / Masquer le texte 45f9bed3f81133182179c2f89d8dd8c2″ class= »text_spoiler » style= »display:none; »>General
Format : Matroska
Format version : Version 2
File size : 5.31 GiB
Duration : 1h 33mn
Overall bit rate mode : Variable
Overall bit rate : 8 110 Kbps
Encoded date : UTC 2013-01-01 20:44:19
Writing application : mkvmerge v5.0.1 (‘Es ist Sommer’) built on Oct 13 2011 12:47:36
Writing library : libebml v1.2.2 + libmatroska v1.3.0

Video
ID : 1
Format : AVC
Format/Info : Advanced Video Codec
Format profile : [email protected]
Format settings, CABAC : Yes
Format settings, ReFrames : 9 frames
Codec ID : V_MPEG4/ISO/AVC
Duration : 1h 33mn
Bit rate mode : Variable
Bit rate : 4 931 Kbps
Maximum bit rate : 40.0 Mbps
Width : 1 280 pixels
Height : 720 pixels
Display aspect ratio : 16:9
Frame rate mode : Constant
Frame rate : 23.976 fps
Color space : YUV
Chroma subsampling : 4:2:0
Bit depth : 8 bits
Scan type : Progressive
Bits/(Pixel*Frame) : 0.223
Stream size : 3.23 GiB (61%)
Title : Resident Evil Apocalypse
Writing library : x264 core 129 r2 1cffe9f
Encoding settings : cabac=1 / ref=9 / deblock=1:-3:-3 / analyse=0x3:0x113 / me=umh / subme=11 / psy=1 / psy_rd=1.00:0.25 / mixed_ref=1 / me_range=128 / chroma_me=1 / trellis=2 / 8x8dct=1 / cqm=0 / deadzone=6,6 / fast_pskip=0 / chroma_qp_offset=-4 / threads=6 / lookahead_threads=1 / sliced_threads=0 / nr=0 / decimate=0 / interlaced=0 / bluray_compat=0 / constrained_intra=0 / bframes=8 / b_pyramid=2 / b_adapt=2 / b_bias=0 / direct=3 / weightb=1 / open_gop=1 / weightp=2 / keyint=250 / keyint_min=23 / scenecut=40 / intra_refresh=0 / rc_lookahead=250 / rc=crf / mbtree=1 / crf=18.0 / qcomp=0.75 / qpmin=0 / qpmax=69 / qpstep=4 / vbv_maxrate=50000 / vbv_bufsize=50000 / crf_max=0.0 / nal_hrd=none / ip_ratio=1.40 / aq=2:0.7
Default : Yes
Forced : No
Color primaries : BT.709
Transfer characteristics : BT.709
Matrix coefficients : BT.709

Audio #1
ID : 2
Format : DTS
Format/Info : Digital Theater Systems
Mode : 16
Format settings, Endianness : Big
Codec ID : A_DTS
Duration : 1h 33mn
Bit rate mode : Constant
Bit rate : 1 509 Kbps
Channel(s) : 6 channels
Channel positions : Front: L C R, Side: L R, LFE
Sampling rate : 48.0 KHz
Bit depth : 16 bits
Compression mode : Lossy
Stream size : 1 013 MiB (19%)
Title : VO DTS Audio English 1509 kbps 5.1 / 48 kHz / 1509 kbps / 16-bit
Language : English
Default : No
Forced : No

Audio #2
ID : 3
Format : DTS
Format/Info : Digital Theater Systems
Mode : 16
Format settings, Endianness : Big
Codec ID : A_DTS
Duration : 1h 33mn
Bit rate mode : Constant
Bit rate : 1 509 Kbps
Channel(s) : 6 channels
Channel positions : Front: L C R, Side: L R, LFE
Sampling rate : 48.0 KHz
Bit depth : 16 bits
Compression mode : Lossy
Stream size : 1 013 MiB (19%)
Title : VFF DTS Audio French 1509 kbps 5.1 / 48 kHz / 1509 kbps / 16-bit
Language : French
Default : Yes
Forced : No

Text #1
ID : 4
Format : UTF-8
Codec ID : S_TEXT/UTF8
Codec ID/Info : UTF-8 Plain Text
Title : Complets
Language : French
Default : No
Forced : No

Text #2
ID : 5
Format : UTF-8
Codec ID : S_TEXT/UTF8
Codec ID/Info : UTF-8 Plain Text
Title : Forcés
Language : French
Default : Yes
Forced : Yes

Menu
00:00:00.000 : en:00:00:00.000
00:04:23.439 : en:00:04:34.691
00:07:06.000 : en:00:07:24.194
00:12:32.479 : en:00:13:04.617
00:16:22.520 : en:00:17:04.482
00:19:18.600 : en:00:20:08.082
00:26:37.239 : en:00:27:45.455
00:31:01.320 : en:00:32:20.814
00:33:59.080 : en:00:35:26.166
00:39:32.519 : en:00:41:13.846
00:44:20.559 : en:00:46:14.188
00:48:56.599 : en:00:51:02.017
00:54:07.040 : en:00:56:25.716
00:58:47.839 : en:01:01:18.508
01:03:11.279 : en:01:05:53.199
01:07:05.399 : en:01:09:57.318
01:12:28.280 : en:01:15:33.988
01:16:44.959 : en:01:20:01.630
01:20:38.079 : en:01:24:04.706
01:27:19.359 : en:01:31:03.124

Resident.Evil.Extinction.2007.VO.VFF.DTS.720p.x264-STEAL

[6 Liens Interchangeables : 5 x 1000 Mo + 1 x 662 Mo]

1fichier
Télécharger

Uptobox
Télécharger

Free
Télécharger

Uploaded
Télécharger

Rapidgator
Télécharger

TurboBit
Télécharger

[1 Lien PREMIUM : 1 x 5.52 GB]

1fichier
Télécharger

Uptobox
Télécharger

TurboBit
Télécharger

[2 Liens PREMIUM]

Uploaded
Partie 1
Partie 2

NFO:

Afficher / Masquer le texte 5f5fcaab7d7383d2f3f1b291af4fcd1a » class= »text_spoiler » style= »display:none; »>General
Format : Matroska
Format version : Version 2
File size : 5.53 GiB
Duration : 1h 34mn
Overall bit rate mode : Variable
Overall bit rate : 8 414 Kbps
Encoded date : UTC 2013-01-02 17:10:51
Writing application : mkvmerge v5.0.1 (‘Es ist Sommer’) built on Oct 13 2011 12:47:36
Writing library : libebml v1.2.2 + libmatroska v1.3.0

Video
ID : 1
Format : AVC
Format/Info : Advanced Video Codec
Format profile : [email protected]
Format settings, CABAC : Yes
Format settings, ReFrames : 9 frames
Codec ID : V_MPEG4/ISO/AVC
Duration : 1h 34mn
Bit rate mode : Variable
Bit rate : 5 228 Kbps
Maximum bit rate : 40.0 Mbps
Width : 1 280 pixels
Height : 720 pixels
Display aspect ratio : 16:9
Frame rate mode : Constant
Frame rate : 23.976 fps
Color space : YUV
Chroma subsampling : 4:2:0
Bit depth : 8 bits
Scan type : Progressive
Bits/(Pixel*Frame) : 0.237
Stream size : 3.44 GiB (62%)
Title : Resident Evil Extinction
Writing library : x264 core 129 r2 1cffe9f
Encoding settings : cabac=1 / ref=9 / deblock=1:-3:-3 / analyse=0x3:0x113 / me=umh / subme=11 / psy=1 / psy_rd=1.00:0.25 / mixed_ref=1 / me_range=128 / chroma_me=1 / trellis=2 / 8x8dct=1 / cqm=0 / deadzone=6,6 / fast_pskip=0 / chroma_qp_offset=-4 / threads=6 / lookahead_threads=1 / sliced_threads=0 / nr=0 / decimate=0 / interlaced=0 / bluray_compat=0 / constrained_intra=0 / bframes=8 / b_pyramid=2 / b_adapt=2 / b_bias=0 / direct=3 / weightb=1 / open_gop=1 / weightp=2 / keyint=250 / keyint_min=23 / scenecut=40 / intra_refresh=0 / rc_lookahead=250 / rc=crf / mbtree=1 / crf=18.0 / qcomp=0.75 / qpmin=0 / qpmax=69 / qpstep=4 / vbv_maxrate=50000 / vbv_bufsize=50000 / crf_max=0.0 / nal_hrd=none / ip_ratio=1.40 / aq=2:0.7
Default : Yes
Forced : No
Color primaries : BT.709
Transfer characteristics : BT.709
Matrix coefficients : BT.709

Audio #1
ID : 2
Format : DTS
Format/Info : Digital Theater Systems
Mode : 16
Format settings, Endianness : Big
Codec ID : A_DTS
Duration : 1h 34mn
Bit rate mode : Constant
Bit rate : 1 509 Kbps
Channel(s) : 6 channels
Channel positions : Front: L C R, Side: L R, LFE
Sampling rate : 48.0 KHz
Bit depth : 24 bits
Compression mode : Lossy
Stream size : 1 016 MiB (18%)
Title : VO DTS Audio English 1509 kbps 5.1 / 48 kHz / 1509 kbps / 24-bit
Language : English
Default : No
Forced : No

Audio #2
ID : 3
Format : DTS
Format/Info : Digital Theater Systems
Mode : 16
Format settings, Endianness : Big
Codec ID : A_DTS
Duration : 1h 34mn
Bit rate mode : Constant
Bit rate : 1 509 Kbps
Channel(s) : 6 channels
Channel positions : Front: L C R, Side: L R, LFE
Sampling rate : 48.0 KHz
Bit depth : 16 bits
Compression mode : Lossy
Delay relative to video : 1s 0ms
Stream size : 1 016 MiB (18%)
Title : VFF DTS Audio French 1509 kbps 5.1 / 48 kHz / 1509 kbps / 16-bit
Language : French
Default : Yes
Forced : No

Text #1
ID : 4
Format : UTF-8
Codec ID : S_TEXT/UTF8
Codec ID/Info : UTF-8 Plain Text
Title : Complets
Language : French
Default : No
Forced : No

Text #2
ID : 5
Format : UTF-8
Codec ID : S_TEXT/UTF8
Codec ID/Info : UTF-8 Plain Text
Title : Forcés
Language : French
Default : Yes
Forced : Yes

Menu
00:00:00.000 : en:Chapter 1
00:07:08.160 : en:Chapter 2
00:10:40.959 : en:Chapter 3
00:14:59.520 : en:Chapter 4
00:19:21.039 : en:Chapter 5
00:25:06.759 : en:Chapter 6
00:30:37.919 : en:Chapter 7
00:34:49.400 : en:Chapter 8
00:39:40.199 : en:Chapter 9
00:44:58.079 : en:Chapter 10
00:48:16.480 : en:Chapter 11
00:52:06.880 : en:Chapter 12
00:59:08.639 : en:Chapter 13
01:05:55.480 : en:Chapter 14
01:10:45.639 : en:Chapter 15
01:15:14.839 : en:Chapter 16
01:19:56.399 : en:Chapter 17
01:23:55.679 : en:Chapter 18

Resident.Evil.Afterlife.2010.VO.VFF.DTS.720p.x264-STEAL

[5 Liens Interchangeables : 4 x 1000 Mo + 1 x 632 Mo]

1fichier
Télécharger

Uptobox
Télécharger

Free
Télécharger

Uploaded
Télécharger

Rapidgator
Télécharger

TurboBit
Télécharger

[1 Lien PREMIUM : 1 x 4.52 GB]

1fichier
Télécharger

Uptobox
Télécharger

Free
Télécharger

Uploaded
Télécharger

Rapidgator
Télécharger

TurboBit
Télécharger

NFO:

Afficher / Masquer le texte 27e89eae845281b9383afbe7f924de5a » class= »text_spoiler » style= »display:none; »>General
Format : Matroska
Format version : Version 2
File size : 4.52 GiB
Duration : 1h 36mn
Overall bit rate mode : Variable
Overall bit rate : 6 685 Kbps
Encoded date : UTC 2013-01-02 20:38:58
Writing application : mkvmerge v4.9.0 (‘Grüner’) built on Jul 10 2011 18:06:28
Writing library : libebml v1.2.1 + libmatroska v1.1.1

Video
ID : 1
Format : AVC
Format/Info : Advanced Video Codec
Format profile : [email protected]
Format settings, CABAC : Yes
Format settings, ReFrames : 9 frames
Codec ID : V_MPEG4/ISO/AVC
Duration : 1h 36mn
Bit rate mode : Variable
Bit rate : 3 534 Kbps
Maximum bit rate : 40.0 Mbps
Width : 1 280 pixels
Height : 720 pixels
Display aspect ratio : 16:9
Frame rate mode : Constant
Frame rate : 23.976 fps
Color space : YUV
Chroma subsampling : 4:2:0
Bit depth : 8 bits
Scan type : Progressive
Bits/(Pixel*Frame) : 0.160
Stream size : 2.39 GiB (53%)
Title : Resident Evil Afterlife
Writing library : x264 core 129 r2 1cffe9f
Encoding settings : cabac=1 / ref=9 / deblock=1:-3:-3 / analyse=0x3:0x113 / me=umh / subme=11 / psy=1 / psy_rd=1.00:0.25 / mixed_ref=1 / me_range=128 / chroma_me=1 / trellis=2 / 8x8dct=1 / cqm=0 / deadzone=6,6 / fast_pskip=0 / chroma_qp_offset=-4 / threads=6 / lookahead_threads=1 / sliced_threads=0 / nr=0 / decimate=0 / interlaced=0 / bluray_compat=0 / constrained_intra=0 / bframes=8 / b_pyramid=2 / b_adapt=2 / b_bias=0 / direct=3 / weightb=1 / open_gop=1 / weightp=2 / keyint=250 / keyint_min=23 / scenecut=40 / intra_refresh=0 / rc_lookahead=250 / rc=crf / mbtree=1 / crf=18.0 / qcomp=0.75 / qpmin=0 / qpmax=69 / qpstep=4 / vbv_maxrate=50000 / vbv_bufsize=50000 / crf_max=0.0 / nal_hrd=none / ip_ratio=1.40 / aq=2:0.7
Default : Yes
Forced : No
Color primaries : BT.709
Transfer characteristics : BT.709
Matrix coefficients : BT.709

Audio #1
ID : 2
Format : DTS
Format/Info : Digital Theater Systems
Mode : 16
Format settings, Endianness : Big
Codec ID : A_DTS
Duration : 1h 36mn
Bit rate mode : Constant
Bit rate : 1 509 Kbps
Channel(s) : 6 channels
Channel positions : Front: L C R, Side: L R, LFE
Sampling rate : 48.0 KHz
Bit depth : 16 bits
Compression mode : Lossy
Stream size : 1.02 GiB (23%)
Title : VO DTS Audio English 1509 kbps 5.1 / 48 kHz / 1509 kbps / 16-bi
Language : English
Default : No
Forced : No

Audio #2
ID : 3
Format : DTS
Format/Info : Digital Theater Systems
Mode : 16
Format settings, Endianness : Big
Codec ID : A_DTS
Duration : 1h 36mn
Bit rate mode : Constant
Bit rate : 1 509 Kbps
Channel(s) : 6 channels
Channel positions : Front: L C R, Side: L R, LFE
Sampling rate : 48.0 KHz
Bit depth : 16 bits
Compression mode : Lossy
Stream size : 1.02 GiB (23%)
Title : VFF DTS Audio French 1509 kbps 5.1 / 48 kHz / 1509 kbps / 16-bit
Language : French
Default : Yes
Forced : No

Text #1
ID : 4
Format : UTF-8
Codec ID : S_TEXT/UTF8
Codec ID/Info : UTF-8 Plain Text
Title : Complets
Language : French
Default : No
Forced : No

Text #2
ID : 5
Format : UTF-8
Codec ID : S_TEXT/UTF8
Codec ID/Info : UTF-8 Plain Text
Title : Forcés
Language : French
Default : Yes
Forced : Yes

Menu
00:00:00.000 : en:Chapter 1
00:05:25.720 : en:Chapter 2
00:09:33.560 : en:Chapter 3
00:17:18.679 : en:Chapter 4
00:21:58.759 : en:Chapter 5
00:25:34.039 : en:Chapter 6
00:30:30.679 : en:Chapter 7
00:34:55.079 : en:Chapter 8
00:39:34.319 : en:Chapter 9
00:44:15.719 : en:Chapter 10
00:50:26.880 : en:Chapter 11
00:55:38.360 : en:Chapter 12
01:01:43.519 : en:Chapter 13
01:06:36.279 : en:Chapter 14
01:11:22.720 : en:Chapter 15
01:15:11.920 : en:Chapter 16
01:22:18.960 : en:Chapter 17
01:26:14.840 : en:Chapter 18