Telecharger Respire [BLURAY 720p] French

Qualité BLURAY 720p | FRENCH | son DTS

Respire

Respire

Origine du film : Français
Réalisateur : Mélanie Laurent
Acteurs : Joséphine Japy, Lou de Laâge, Isabelle Carré
Genre : Drame
Durée : 1h32min
Date de sortie : 12 novembre 2014
Année de production : 2014
Distribué par : Gaumont Distribution
Note presse : Respire 3,5/5
Note spectateurs : Respire 3,9/5 (1 465)
Bande annonce :

4a48edb3b48adfa612fef40019376e7c

19548485″>Cliquez-ici pour voir la bande annonce 4a48edb3b48adfa612fef40019376e7c »> 19548485

4a48edb3b48adfa612fef40019376e7c

Respire

Charlie, une jeune fille de 17 ans. L’âge des potes, des émois, des convictions, des passions. Sarah, c’est la nouvelle. Belle, culottée, un parcours, un tempérament. La star immédiate, en somme. Sarah choisit Charlie.
78771″ style= »display:inline; »>

Respire

Format : MKV

Respire

Breathe.2014.FRENCH.720p.BluRay.DTS.x264-CiNEFiLE

(4475 Mo)

[Liens Interchangeables entre hébergeurs: 4x 1000 Mo + 1x 475 Mo]

Uptobox
Télécharger

Uplea
Télécharger

1fichier
Télécharger

Uploaded
Télécharger

Rapidgator
Télécharger

TurboBit
Télécharger

1 Lien Premium – 4.4 Go

Uptobox Premium
Télécharger

Uplea Premium
Télécharger

1fichier Premium
Télécharger

Uploaded Premium
Télécharger

TurboBit Premium
Télécharger

NFO :

Afficher / Masquer le texte 0579d8845ad68be2318ced38a5ca5e36″ class= »text_spoiler » style= »display:none; »>General
Unique ID : 240712106009307687481424278765677868232 (0xB517771D81AC778885BD0DC2C73C74C8)
Complete name : Breathe.2014.FRENCH.720p.BluRay.DTS.x264-CiNEFiLE.mkv
Format : Matroska
Format version : Version 4 / Version 2
File size : 4.37 GiB
Duration : 1h 30mn
Overall bit rate : 6 926 Kbps
Encoded date : UTC 2015-03-20 07:40:49
Writing application : mkvmerge v6.5.0 (‘Isn’t she lovely’) built on Oct 20 2013 12:50:05
Writing library : libebml v1.3.0 + libmatroska v1.4.1

Video
ID : 1
Format : AVC
Format/Info : Advanced Video Codec
Format profile : [email protected]
Format settings, CABAC : Yes
Format settings, ReFrames : 5 frames
Codec ID : V_MPEG4/ISO/AVC
Duration : 1h 30mn
Bit rate : 5 416 Kbps
Width : 1 280 pixels
Height : 536 pixels
Display aspect ratio : 2.40:1
Frame rate mode : Constant
Frame rate : 23.976 fps
Color space : YUV
Chroma subsampling : 4:2:0
Bit depth : 8 bits
Scan type : Progressive
Bits/(Pixel*Frame) : 0.329
Stream size : 3.33 GiB (76%)
Writing library : x264 core 146 r2538 121396c
Encoding settings : cabac=1 / ref=5 / deblock=1:0:0 / analyse=0x3:0x113 / me=umh / subme=8 / psy=1 / psy_rd=1.00:0.00 / mixed_ref=1 / me_range=16 / chroma_me=1 / trellis=1 / 8x8dct=1 / cqm=0 / deadzone=21,11 / fast_pskip=0 / chroma_qp_offset=-2 / threads=12 / lookahead_threads=2 / sliced_threads=0 / nr=0 / decimate=1 / interlaced=0 / bluray_compat=0 / constrained_intra=0 / bframes=3 / b_pyramid=2 / b_adapt=1 / b_bias=0 / direct=1 / weightb=1 / open_gop=0 / weightp=2 / keyint=250 / keyint_min=23 / scenecut=40 / intra_refresh=0 / rc_lookahead=40 / rc=2pass / mbtree=1 / bitrate=5416 / ratetol=1.0 / qcomp=0.60 / qpmin=0 / qpmax=69 / qpstep=4 / cplxblur=20.0 / qblur=0.5 / ip_ratio=1.40 / aq=1:1.00
Language : English
Default : Yes
Forced : No

Audio
ID : 2
Format : DTS
Format/Info : Digital Theater Systems
Mode : 16
Format settings, Endianness : Big
Codec ID : A_DTS
Duration : 1h 30mn
Bit rate mode : Constant
Bit rate : 1 509 Kbps
Channel(s) : 6 channels
Channel positions : Front: L C R, Side: L R, LFE
Sampling rate : 48.0 KHz
Bit depth : 24 bits
Compression mode : Lossy
Stream size : 975 MiB (22%)
Title : DTS 5.1
Language : French
Default : Yes
Forced : No

Menu
00:00:00.000 : en:00:00:00.000
00:09:08.923 : en:00:09:08.923
00:17:22.583 : en:00:17:22.583
00:24:53.784 : en:00:24:53.784
00:34:16.680 : en:00:34:16.680
00:42:43.686 : en:00:42:43.686
00:50:51.048 : en:00:50:51.048
00:57:49.591 : en:00:57:49.591
01:03:57.667 : en:01:03:57.667
01:10:26.055 : en:01:10:26.055
01:18:00.509 : en:01:18:00.509
01:24:04.122 : en:01:24:04.122