Telecharger Revenge City [BLURAY 720p] French

(TRUEFRENCH = Vraie voix française)

BLURAY 720p | TRUEFRENCH | DTS

Revenge City

Revenge City

Revenge City

Origine du film : Américain
Réalisateur : David Ren
Acteurs : Jason Yee, Samantha Streets, Gary Stretch
Genre : Action, Romance, Thriller
Durée : 1h 24min
Année de production : 2012
Titre Original : The Girl from the Naked Eye
Note spectateurs : Revenge City 2,4/5 (33)
Bande annonce :

803140f6152e13857154931af0efbd45

19441382″>Cliquez-ici pour voir la bande annonce 803140f6152e13857154931af0efbd45″> 19441382

803140f6152e13857154931af0efbd45

Revenge City

Une escort-girl nommée Sandy est retrouvée morte. Avec pour seul indice le portable de cette dernière, son ami Jake est prêt à tout pour retrouver son meurtrier et la venger.

Nom de la release : The.Girl.From.The.Naked.Eye.2012.STV.FRENCH.720p.BluRay.x264-ZEST 33523″ style= »display:inline; »>

Qualité : BLURAY 720p
Format : MKV
Langue : Français
Sous-titre : Français
Nombre de fichiers : 4 Fichiers
Taille des fichiers : 1000 Mo 356 Mo
Taille totale : 3356 Mo

Ps: Les liens sont interchangeables, prenez une partie de chaque hébergeur pour télécharger plusieurs fichiers en même temps. smile

[3 Liens de 1000 Mo 1 Lien de 356Mo]

1fichier
Télécharger

Uptobox
Télécharger

Free
Upload en cour…

Uploaded
Télécharger

Rapidgator
Upload en cour…

TurboBit
Télécharger

[1 Lien Premium]

1fichier Premium
Télécharger

Uptobox Premium
Télécharger

Free Premium
Télécharger

BayFiles Premium
Télécharger

Uploaded Premium
Télécharger

cloudZer Premium
Télécharger

TurboBit Premium
Télécharger

NFO :

Afficher / Masquer le texte 6a19b84bd873717894248cec63aff4c7″ class= »text_spoiler » style= »display:none; »>General
Unique ID : 191234185104146489952887682845635051548 (0x8FDE5D45ED66F95ABF83D4855CC9001C)
Complete name : zest-tgftne720p.mkv
Format : Matroska
Format version : Version 4 / Version 2
File size : 3.28 GiB
Duration : 1h 20mn
Overall bit rate : 5 839 Kbps
Encoded date : UTC 2013-08-31 14:43:24
Writing application : mkvmerge v6.2.0 ('Promised Land') built on Apr 28 2013 12:22:01
Writing library : libebml v1.3.0 libmatroska v1.4.0

Video
ID : 1
Format : AVC
Format/Info : Advanced Video Codec
Format profile : [email protected]
Format settings, CABAC : Yes
Format settings, ReFrames : 5 frames
Codec ID : V_MPEG4/ISO/AVC
Duration : 1h 20mn
Bit rate : 4 331 Kbps
Width : 1 280 pixels
Height : 544 pixels
Display aspect ratio : 2.35:1
Frame rate mode : Constant
Frame rate : 25.000 fps
Color space : YUV
Chroma subsampling : 4:2:0
Bit depth : 8 bits
Scan type : Progressive
Bits/(Pixel*Frame) : 0.249
Stream size : 2.37 GiB (72%)
Title : zest – The Girl From The Naked Eye 2012 – 720p
Writing library : x264 core 138 r2358 9e941d1
Encoding settings : cabac=1 / ref=5 / deblock=1:0:0 / analyse=0x3:0x133 / me=umh / subme=7 / psy=1 / psy_rd=1.00:0.00 / mixed_ref=1 / me_range=16 / chroma_me=1 / trellis=1 / 8x8dct=1 / cqm=0 / deadzone=21,11 / fast_pskip=0 / chroma_qp_offset=-2 / threads=6 / lookahead_threads=1 / sliced_threads=0 / nr=0 / decimate=1 / interlaced=0 / bluray_compat=0 / constrained_intra=0 / bframes=3 / b_pyramid=2 / b_adapt=1 / b_bias=0 / direct=1 / weightb=1 / open_gop=0 / weightp=2 / keyint=250 / keyint_min=25 / scenecut=40 / intra_refresh=0 / rc_lookahead=40 / rc=2pass / mbtree=1 / bitrate=4331 / ratetol=1.0 / qcomp=0.60 / qpmin=0 / qpmax=69 / qpstep=4 / cplxblur=20.0 / qblur=0.5 / ip_ratio=1.40 / aq=1:1.00
Default : Yes
Forced : No

Audio
ID : 2
Format : DTS
Format/Info : Digital Theater Systems
Mode : 16
Format settings, Endianness : Big
Codec ID : A_DTS
Duration : 1h 20mn
Bit rate mode : Constant
Bit rate : 1 509 Kbps
Channel(s) : 6 channels
Channel positions : Front: L C R, Side: L R, LFE
Sampling rate : 48.0 KHz
Bit depth : 24 bits
Compression mode : Lossy
Stream size : 868 MiB (26%)
Title : FR – DTS – 1509Kbps
Language : French
Default : Yes
Forced : No

Text
ID : 3
Format : UTF-8
Codec ID : S_TEXT/UTF8
Codec ID/Info : UTF-8 Plain Text
Title : FR Subs
Language : French
Default : No
Forced : No