Telecharger Ricky Bobby : roi du circuit [BLURAY 720p] French

BLURAY 720p | MULTiLANGUES (Avec VFQ)

Ricky Bobby : roi du circuit

Ricky Bobby : roi du circuit

Ricky Bobby : roi du circuit

Origine du film : Américain
Réalisateur : Adam McKay
Acteurs : Jason Davis, Will Ferrell, John C. Reilly
Genre : Comédie
Durée : 1h45min
Année de production : 2006
Titre Original : Talladega Nights : The Ballad of Ricky Bobby
Note spectateurs : Ricky Bobby : roi du circuit

; »>2,8/5 (615)
Bande annonce :

da8122f02ebd6a07243bb53d3478c141

19360767″>Cliquez-ici pour voir la bande annonce da8122f02ebd6a07243bb53d3478c141″> 19360767

da8122f02ebd6a07243bb53d3478c141

Ricky Bobby : roi du circuit

Ricky Bobby est devenu un héros national grâce à ses nombreuses victoires dans la course automobile. Avec Cal, son ami d'enfance, ils se partagent, en toute loyauté, la première et la deuxième places du podium. L'arrivée d'un Français réputé dans le monde de la formule 1 va venir troubler la compétition et remettre en cause leur suprématie. 46797″ style= »display:inline; »>

Qualité : BLURAY 720p
Format : MKV
Langue : Multilangage
Sous-titre : Français
Découpé avec : Winrar
Nombre de fichiers : 5 Fichiers
Taille des fichiers : 1000 Mo 780 Mo

[Liens Interchangeables]

Talladega.Nights.The.Ballad.Of.Ricky.Bobby.2006.MULTI.720p.BluRay.x264.AC3-LCDS ( 4780 Mo)

1fichier
Télécharger

Uptobox
Télécharger

Free
Télécharger

Uploaded
Télécharger

Rapidgator
Télécharger

TurboBit
Télécharger

[ 1 Lien Premium – 4,7 Go ]

1fichier
Télécharger

Uptobox
Télécharger

Free
Télécharger

Uploaded
Télécharger

TurboBit
Télécharger

NFO :

Afficher / Masquer le texte 8f07077a504b99c767c99400be1c62e3″ class= »text_spoiler » style= »display:none; »>General
Complete name : Talladega.Nights.The.Ballad.Of.Ricky.Bobby.2006.MULTI.720p.BluRay.x264.AC3-LCDS.mkv
Format : Matroska
Format version : Version 4 / Version 2
File size : 4.65 GiB
Duration : 2h 1mn
Overall bit rate : 5 484 Kbps
Encoded date : UTC 2014-01-16 19:05:43
Writing application : mkvmerge v6.7.0 ('Back to the Ground') 64bit built on Jan 8 2014 15:10:52
Writing library : libebml v1.3.0 libmatroska v1.4.1

Video
ID : 1
Format : AVC
Format/Info : Advanced Video Codec
Format profile : [email protected]
Format settings, CABAC : Yes
Format settings, ReFrames : 5 frames
Codec ID : V_MPEG4/ISO/AVC
Duration : 2h 1mn
Bit rate : 4 650 Kbps
Width : 1 280 pixels
Height : 534 pixels
Display aspect ratio : 2.40:1
Frame rate mode : Constant
Frame rate : 23.976 fps
Color space : YUV
Chroma subsampling : 4:2:0
Bit depth : 8 bits
Scan type : Progressive
Bits/(Pixel*Frame) : 0.284
Stream size : 3.85 GiB (83%)
Title : Video
Writing library : x264 core 65 r998M 6768543
Encoding settings : cabac=1 / ref=5 / deblock=1:-3:-3 / analyse=0x3:0x113 / me=umh / subme=8 / psy_rd=1.0:0.0 / mixed_ref=1 / me_range=16 / chroma_me=1 / trellis=1 / 8x8dct=1 / cqm=2 / deadzone=21,11 / chroma_qp_offset=-2 / threads=6 / nr=0 / decimate=0 / mbaff=0 / bframes=3 / b_pyramid=1 / b_adapt=2 / b_bias=0 / direct=3 / wpredb=1 / keyint=250 / keyint_min=25 / scenecut=40(pre) / rc=2pass / bitrate=4650 / ratetol=1.0 / qcomp=0.60 / qpmin=10 / qpmax=51 / qpstep=4 / cplxblur=20.0 / qblur=0.5 / vbv_maxrate=50000 / vbv_bufsize=50000 / ip_ratio=1.40 / pb_ratio=1.30 / aq=1:1.00
Default : Yes
Forced : No

Audio #1
ID : 2
Format : AC-3
Format/Info : Audio Coding 3
Mode extension : CM (complete main)
Format settings, Endianness : Big
Codec ID : A_AC3
Duration : 2h 1mn
Bit rate mode : Constant
Bit rate : 448 Kbps
Channel(s) : 6 channels
Channel positions : Front: L C R, Side: L R, LFE
Sampling rate : 48.0 KHz
Bit depth : 16 bits
Compression mode : Lossy
Stream size : 389 MiB (8%)
Title : Anglais 5.1
Language : English
Default : No
Forced : No

Audio #2
ID : 3
Format : AC-3
Format/Info : Audio Coding 3
Mode extension : CM (complete main)
Format settings, Endianness : Big
Codec ID : A_AC3
Duration : 2h 1mn
Bit rate mode : Constant
Bit rate : 384 Kbps
Channel(s) : 6 channels
Channel positions : Front: L C R, Side: L R, LFE
Sampling rate : 48.0 KHz
Bit depth : 16 bits
Compression mode : Lossy
Stream size : 334 MiB (7%)
Title : Francais 5.1
Language : French
Default : Yes
Forced : No

Text #1
ID : 4
Format : UTF-8
Codec ID : S_TEXT/UTF8
Codec ID/Info : UTF-8 Plain Text
Title : Anglais
Language : English
Default : No
Forced : No

Text #2
ID : 5
Format : UTF-8
Codec ID : S_TEXT/UTF8
Codec ID/Info : UTF-8 Plain Text
Title : Francais
Language : French
Default : No
Forced : No