Telecharger Road House [DVDRiP] French

(TRUEFRENCH = Vraie voix française)

BLURAY 720p | MULTiLANGUES (Avec TRUEFRENCH)

Road House

Road House

Road House

Origine du film : Américain
Réalisateur : Rowdy Herrington
Acteurs : Patrick Swayze, Kelly Lynch, Sam Elliott
Genre : Action
Durée : 1h54min
Date de sortie : 3 janvier 1990
Année de production : 1989
Distribué par : United International Pictures (UIP)
Note spectateurs : Road House

; »>2,7/5 (378)
Bande annonce :

b17c9b422e5fd1bc434668949ccb2ac9

19371881″>Cliquez-ici pour voir la bande annonce b17c9b422e5fd1bc434668949ccb2ac9″> 19371881

b17c9b422e5fd1bc434668949ccb2ac9

Road House

Dalton a toutes les qualifications requises pour avoir un boulot stable et une vie tranquille, mais il préfère vivre sa vie. Voilà pourquoi il se retrouve vigile au Double Deuce, un bar de Jasper. Lors de sa première nuit de travail, il est blessé, mais aussitôt recueilli et soigné par Elizabeth Clay, une jeune et belle doctoresse. Malheureusement, Brad Wesley, qui règne en maître sur le crime à Jasper, est intéressé par la jeune femme… 40191″ style= »display:inline; »>

Qualité : BLURAY 720p
Format : MKV
Sous-titre : Français
Découpé avec : Winrar

[Liens Interchangeables]

Road House 1989 720p BLuRay Multi x264-GAÏA ( 700 Mo)

1fichier
Télécharger

Uptobox
Télécharger

Free
Télécharger

Uploaded
Télécharger

Rapidgator
Télécharger

TurboBit
Télécharger

[ 1 lien Premium – 6,7 Go ]

1fichier Premium
Télécharger

Uptobox Premium
Télécharger

Free Premium
Télécharger

TurboBit Premium
Télécharger

NFO :

Afficher / Masquer le texte 07f0bfb994edb272ab6291624e935bb2″ class= »text_spoiler » style= »display:none; »>Format : Matroska

Format version : Version 1

File size : 6.56 GiB

Duration : 1h 54mn

Overall bit rate : 8 225 Kbps

Movie name : Road House 1989 720p BluRay Multi x264-GAÏA

Encoded date : UTC 2009-07-11 04:56:13

Writing application : mkvmerge v2.0.2 ('You're My Flame') built on Feb 21 2007 23:40:55

Writing library : libebml v0.7.7 libmatroska v0.8.1

Video

ID : 1

Format : AVC

Format/Info : Advanced Video Codec

Format profile : [email protected]

Format settings, CABAC : Yes

Format settings, ReFrames : 9 frames

Codec ID : V_MPEG4/ISO/AVC

Duration : 1h 54mn

Bit rate : 6 488 Kbps

Width : 1 280 pixels

Height : 720 pixels

Display aspect ratio : 16:9

Frame rate : 23.976 fps

Color space : YUV

Chroma subsampling : 4:2:0

Bit depth : 8 bits

Scan type : Progressive

Bits/(Pixel*Frame) : 0.294

Stream size : 5.05 GiB (77%)

Writing library : x264 core 67 r1173M f6d3166

Encoding settings : cabac=1 / ref=9 / deblock=1:-3:-3 / analyse=0x3:0x113 / me=umh / subme=9 / psy_rd=1.0:0.0 / mixed_ref=1 / me_range=32 / chroma_me=1 / trellis=2 / 8x8dct=1 / cqm=0 / deadzone=21,11 / chroma_qp_offset=-2 / threads=3 / nr=0 / decimate=1 / mbaff=0 / bframes=3 / b_pyramid=1 / b_adapt=2 / b_bias=0 / direct=3 / wpredb=1 / keyint=250 / keyint_min=25 / scenecut=40 / rc=2pass / bitrate=6488 / ratetol=1.0 / qcomp=0.60 / qpmin=10 / qpmax=51 / qpstep=4 / cplxblur=20.0 / qblur=0.5 / vbv_maxrate=50000 / vbv_bufsize=50000 / ip_ratio=1.40 / pb_ratio=1.30 / aq=1:1.00

Language : English

Default : Yes

Forced : No

Audio #1

ID : 2

Format : AC-3

Format/Info : Audio Coding 3

Format profile : Dolby Digital

Mode extension : CM (complete main)

Codec ID : A_AC3

Duration : 1h 54mn

Bit rate mode : Constant

Bit rate : 224 Kbps

Channel(s) : 2 channels

Channel positions : Front: L R

Sampling rate : 48.0 KHz

Bit depth : 16 bits

Compression mode : Lossy

Stream size : 183 MiB (3%)

Language : French

Default : Yes

Forced : No

Audio #2

ID : 3

Format : DTS

Format/Info : Digital Theater Systems

Codec ID : A_DTS

Duration : 1h 54mn

Bit rate mode : Constant

Bit rate : 1 510 Kbps

Channel(s) : 6 channels

Channel positions : Front: L C R, Side: L R, LFE

Sampling rate : 48.0 KHz

Bit depth : 24 bits

Compression mode : Lossy

Stream size : 1.20 GiB (18%)

Language : English

Default : No

Forced : No

Text #1

ID : 4

Format : UTF-8

Codec ID : S_TEXT/UTF8

Codec ID/Info : UTF-8 Plain Text

Title : French Forced

Language : French

Default : Yes

Forced : No

Text #2

ID : 5

Format : UTF-8

Codec ID : S_TEXT/UTF8

Codec ID/Info : UTF-8 Plain Text

Title : French

Language : French

Default : No

Forced : No

Jeux Gratuit
15354131_1854970838071206_1069261547_o.png