Télécharger Robin des bois, la véritable histoire Blu-Ray 1080p/720p FRENCH

(TRUEFRENCH = Vraie voix française)

Qualité BLURAY 720p | TRUEFRENCH | son DTS

Robin des bois, la véritable histoire

Robin des bois, la véritable histoire

Origine du film : Français
Réalisateur : Anthony Marciano
Acteurs : Max Boublil, Géraldine Nakache, Malik Bentalha
Genre : Comédie
Durée : 1h27min
Date de sortie : 15 avril 2015
Année de production : 2014
Distribué par : Mars Distribution
Note presse : Robin des bois, la véritable histoire 2,3/5
Note spectateurs : Robin des bois, la véritable histoire 1,9/5 (829)
Bande annonce :

03c026d53e9ac55331f490f6858255b0

19551461″>Cliquez-ici pour voir la bande annonce 03c026d53e9ac55331f490f6858255b0″> 19551461

03c026d53e9ac55331f490f6858255b0

Robin des bois, la véritable histoire

Robin des Bois est un sale type. Lui et son compère Tuck ont une éthique très claire dans la vie : ils ne volent que les pauvres, les femmes ou les vieux. Le reste ? Trop risqué. Mais même les sales types ont des rêves, et le leur est de racheter la maison close la plus courue de la ville, le Pussycat. Robin, que rien n’arrête lorsqu’il s’agit de s’enrichir, décide alors d’aller chercher l’argent là où il se trouve et projette de dévaliser la caisse des impôts de Nottingham. Mais sa rencontre avec le gang de Sherwood, des justiciers qui eux volent les riches pour donner aux pauvres, va contrarier ses plans. Petit Jean, Marianne et leurs amis ont en effet eu exactement la même idée que lui : braquer le Shérif de Nottingham. La (vraie) légende de Robin des Bois peut enfin commencer !
95858″ style= »display:inline; »>

Robin des bois, la véritable histoire

Format : MKV
Découpé avec : Winrar

Robin des bois, la véritable histoire

Robin.Des.Bois.La.Veritable.Histoire.2015.FRENCH.720p.BluRay.x264-Ryotox

(4476 Mo)

[Liens Interchangeables entre hébergeurs: 4x 1000 Mo + 1x 476 Mo]

Uptobox
Télécharger

Uplea
Télécharger

1fichier
Télécharger

Uploaded
Télécharger

Rapidgator
Télécharger

TurboBit
Télécharger

[Liens PREMIUM]

Uptobox
Télécharger

Uplea
Télécharger

1fichier
Télécharger

Uploaded
Télécharger

Rapidgator
Télécharger

TurboBit
Télécharger

NFO :

Afficher / Masquer le texte 76e10508c39a6efe249217f6eca0e0b7″ class= »text_spoiler » style= »display:none; »>General
Format : Matroska
Format version : Version 2
File size : 4.37 GiB
Duration : 1h 32mn
Overall bit rate : 6 750 Kbps
Encoded date : UTC 2015-08-24 22:59:48
Writing application : mkvmerge v8.2.0 (‘World of Adventure’) 32bit
Writing library : libebml v1.3.1 + libmatroska v1.4.2
DURATION : 01:32:43.382000000
NUMBER_OF_FRAMES : 521567
NUMBER_OF_BYTES : 1049392804
_STATISTICS_WRITING_APP : mkvmerge v8.2.0 (‘World of Adventure’) 32bit
_STATISTICS_WRITING_DATE_UTC : 2015-08-24 22:59:48
_STATISTICS_TAGS : BPS DURATION NUMBER_OF_FRAMES NUMBER_OF_BYTES

Video
ID : 1
Format : AVC
Format/Info : Advanced Video Codec
Format profile : [email protected]
Format settings, CABAC : Yes
Format settings, ReFrames : 5 frames
Codec ID : V_MPEG4/ISO/AVC
Duration : 1h 32mn
Bit rate : 5 239 Kbps
Width : 1 280 pixels
Height : 536 pixels
Display aspect ratio : 2.40:1
Frame rate mode : Constant
Frame rate : 24.000 fps
Color space : YUV
Chroma subsampling : 4:2:0
Bit depth : 8 bits
Scan type : Progressive
Bits/(Pixel*Frame) : 0.318
Stream size : 3.31 GiB (76%)
Writing library : x264 core 148 r2579 73ae2d1
Encoding settings : cabac=1 / ref=5 / deblock=1:0:0 / analyse=0x3:0x133 / me=umh / subme=9 / psy=1 / psy_rd=1.00:0.00 / mixed_ref=1 / me_range=16 / chroma_me=1 / trellis=1 / 8x8dct=1 / cqm=0 / deadzone=21,11 / fast_pskip=0 / chroma_qp_offset=-2 / threads=12 / lookahead_threads=1 / sliced_threads=0 / nr=0 / decimate=1 / interlaced=0 / bluray_compat=0 / constrained_intra=0 / bframes=3 / b_pyramid=2 / b_adapt=1 / b_bias=0 / direct=1 / weightb=1 / open_gop=0 / weightp=2 / keyint=240 / keyint_min=24 / scenecut=40 / intra_refresh=0 / rc_lookahead=40 / rc=2pass / mbtree=1 / bitrate=5239 / ratetol=1.0 / qcomp=0.60 / qpmin=0 / qpmax=69 / qpstep=4 / cplxblur=20.0 / qblur=0.5 / ip_ratio=1.40 / aq=1:1.00
Default : Yes
Forced : No
Matrix coefficients : BT.709

Audio
ID : 2
Format : DTS
Format/Info : Digital Theater Systems
Mode : 16
Format settings, Endianness : Big
Codec ID : A_DTS
Duration : 1h 32mn
Bit rate mode : Constant
Bit rate : 1 509 Kbps
Channel(s) : 6 channels
Channel positions : Front: L C R, Side: L R, LFE
Sampling rate : 48.0 KHz
Bit depth : 24 bits
Compression mode : Lossy
Stream size : 1 001 MiB (22%)
Language : French
Default : Yes
Forced : No

Menu
00:00:00.000 : en:00:00:00.000
00:03:20.250 : en:00:03:20.250
00:14:35.625 : en:00:14:35.625
00:20:44.583 : en:00:20:44.583
00:30:13.000 : en:00:30:13.000
00:37:56.042 : en:00:37:56.042
00:45:48.833 : en:00:45:48.833
00:53:26.667 : en:00:53:26.667
01:01:31.208 : en:01:01:31.208
01:07:52.083 : en:01:07:52.083
01:15:53.333 : en:01:15:53.333
01:23:50.417 : en:01:23:50.417

Jeux Gratuit
15354131_1854970838071206_1069261547_o.png