Telecharger RoboCop [BLURAY 720p] French

BLURAY 720p | FRENCH

RoboCop

RoboCop

RoboCop

Origine du film : Américain
Réalisateur : José Padilha
Acteurs : Joel Kinnaman, Gary Oldman, Michael Keaton
Genre : Action, Science fiction
Durée : 1h57min
Date de sortie : 5 février 2014
Année de production : 2014
Distribué par : StudioCanal
Note presse : RoboCop 2,6/5
Note spectateurs : RoboCop

; »>3,4/5 (3 069)
Bande annonce :

37690b46f76a217014976cbe03a1bf7b

19539448″>Cliquez-ici pour voir la bande annonce 37690b46f76a217014976cbe03a1bf7b »> 19539448

37690b46f76a217014976cbe03a1bf7b

RoboCop

Les services de police inventent une nouvelle arme infaillible, Robocop, mi-homme, mi-robot, policier électronique de chair et d'acier qui a pour mission de sauvegarder la tranquillité de la ville. Mais ce cyborg a aussi une âme…
51605″ style= »display:inline; »>

RoboCop

Qualité : BLURAY 720p
Format : MKV
Langue : Français
Sous-titre : Aucun
Nombre de fichiers : 5 Fichiers
Taille des fichiers : 1000 Mo + 697 Mo

RoboCop

Ps: Les liens sont interchangeables, prenez une partie de chaque hébergeur pour télécharger plusieurs fichiers en même temps.

Robocop.2014.FRENCH.720p.BluRay.AC3.x264-BiTE ( 4697 Mo )

Uptobox
Télécharger

Uplea
Télécharger

1fichier
Télécharger

Uploaded
Télécharger

Rapidgator
Télécharger

TurboBit
Télécharger

1 Lien Premium – 4.6 Go

Uptobox
Télécharger

Uplea
Télécharger

1fichier
Télécharger

TurboBit
Télécharger

NFO :

Afficher / Masquer le texte ca1bd7482844aca232d5f32081093ac3″ class= »text_spoiler » style= »display:none; »>720p-SPARKS
BluRay-TTG

General
Unique ID : 239243133808303896354933367712337456777 (0xB3FC8D31A9B2C81CB14CA894F1F96E89)
Complete name : Robocop.2014.FRENCH.720p.BluRay.AC3.x264-BiTE.mkv
Format : Matroska
Format version : Version 4 / Version 2
File size : 4.59 GiB
Duration : 1h 57mn
Overall bit rate : 5 590 Kbps
Encoded date : UTC 2014-05-09 05:51:29
Writing application : mkvmerge v6.9.1 (‘Blue Panther’) 64bit built on Apr 18 2014 18:23:38
Writing library : libebml v1.3.0 + libmatroska v1.4.1

Video
ID : 1
Format : AVC
Format/Info : Advanced Video Codec
Format profile : [email protected]
Format settings, CABAC : Yes
Format settings, ReFrames : 5 frames
Codec ID : V_MPEG4/ISO/AVC
Duration : 1h 57mn
Bit rate : 5 145 Kbps
Width : 1 280 pixels
Height : 536 pixels
Display aspect ratio : 2.40:1
Frame rate mode : Constant
Frame rate : 23.976 fps
Color space : YUV
Chroma subsampling : 4:2:0
Bit depth : 8 bits
Scan type : Progressive
Bits/(Pixel*Frame) : 0.313
Stream size : 4.13 GiB (90%)
Title : Robocop.2014.FRENCH.720p.BluRay.AC3.x264-BiTE
Writing library : x264 core 142 r2431 ac76440
Encoding settings : cabac=1 / ref=5 / deblock=1:0:0 / analyse=0x3:0x133 / me=umh / subme=7 / psy=1 / psy_rd=1.00:0.00 / mixed_ref=1 / me_range=16 / chroma_me=1 / trellis=1 / 8x8dct=1 / cqm=0 / deadzone=21,11 / fast_pskip=0 / chroma_qp_offset=-2 / threads=12 / lookahead_threads=2 / sliced_threads=0 / nr=0 / decimate=1 / interlaced=0 / bluray_compat=0 / constrained_intra=0 / bframes=3 / b_pyramid=2 / b_adapt=1 / b_bias=0 / direct=1 / weightb=1 / open_gop=0 / weightp=2 / keyint=250 / keyint_min=23 / scenecut=40 / intra_refresh=0 / rc_lookahead=40 / rc=2pass / mbtree=1 / bitrate=5145 / ratetol=1.0 / qcomp=0.60 / qpmin=0 / qpmax=69 / qpstep=4 / cplxblur=20.0 / qblur=0.5 / ip_ratio=1.40 / aq=1:1.00
Default : Yes
Forced : Yes

Audio
ID : 2
Format : AC-3
Format/Info : Audio Coding 3
Mode extension : CM (complete main)
Format settings, Endianness : Big
Codec ID : A_AC3
Duration : 1h 57mn
Bit rate mode : Constant
Bit rate : 448 Kbps
Channel(s) : 6 channels
Channel positions : Front: L C R, Side: L R, LFE
Sampling rate : 48.0 KHz
Bit depth : 16 bits
Compression mode : Lossy
Stream size : 376 MiB (8%)
Title : AC3 5.1 @ 448 Kbps
Language : French
Default : Yes
Forced : Yes

Text
ID : 3
Format : UTF-8
Codec ID : S_TEXT/UTF8
Codec ID/Info : UTF-8 Plain Text
Title : Forced
Language : French
Default : Yes
Forced : Yes

Menu
00:00:00.000 : en:00:00:00.000
00:04:33.899 : en:00:04:33.899
00:08:51.740 : en:00:08:51.740
00:14:33.915 : en:00:14:33.915
00:17:01.604 : en:00:17:01.604
00:19:27.041 : en:00:19:27.041
00:21:52.937 : en:00:21:52.937
00:26:13.572 : en:00:26:13.572
00:30:47.971 : en:00:30:47.971
00:32:48.675 : en:00:32:48.675
00:36:12.379 : en:00:36:12.379
00:39:06.970 : en:00:39:06.970
00:43:03.498 : en:00:43:03.498
00:45:40.655 : en:00:45:40.655
00:52:10.377 : en:00:52:10.377
00:57:21.188 : en:00:57:21.188
01:01:23.889 : en:01:01:23.889
01:02:59.901 : en:01:02:59.901
01:06:05.920 : en:01:06:05.920
01:10:30.476 : en:01:10:30.476
01:13:26.527 : en:01:13:26.527
01:18:24.867 : en:01:18:24.867
01:21:56.203 : en:01:21:56.203
01:26:04.993 : en:01:26:04.993
01:28:06.907 : en:01:28:06.907
01:32:02.976 : en:01:32:02.976
01:35:52.956 : en:01:35:52.956
01:38:30.655 : en:01:38:30.655
01:41:30.751 : en:01:41:30.751
01:43:44.635 : en:01:43:44.635
01:46:41.562 : en:01:46:41.562
01:50:12.689 : en:01:50:12.689

Jeux Gratuit
15354131_1854970838071206_1069261547_o.png