Telecharger Rock [BLURAY 720p] French

(TRUEFRENCH = Vraie voix française)

Qualité BLURAY 720p | TRUEFRENCH | son DTS

Rock

Rock

Origine du film : Américain
Réalisateur : Michael Bay
Acteurs : Nicolas Cage, Sean Connery, Ed Harris
Genre : Action, Aventure, Thriller
Durée : 2h16min
Date de sortie : 31 juillet 1996
Année de production : 1995
Titre Original : The Rock
Distribué par : Gaumont Buena Vista International (GBVI)
Note presse : Rock 2,6/5
Note spectateurs : Rock

; »>3,7/5 (16 564)
Bande annonce :

b4eba9d32b32f97eaa28e5236e803c5e

19450783″>Cliquez-ici pour voir la bande annonce b4eba9d32b32f97eaa28e5236e803c5e »> 19450783

b4eba9d32b32f97eaa28e5236e803c5e

Rock

Excédé par l’injustice de son gouvernement, le Général Hummel se rend maître de l’île d’Alcatraz et menace de lancer un gaz mortel sur San Francisco. Deux hommes sont chargés de le contrer : un expert en armes chimiques, Stanley Goodspeed, et John Patrick Mason, l’unique prisonnier à s’être évadé d’Alcatraz… Ils se rendent ensemble sur l’île afin de stopper les projets destructeurs du Général.
83537″ style= »display:inline; »>

Rock

Format : MKV
Découpé avec : Winrar

Rock

The.Rock.1996.FRENCH.720p.BluRay.DTS.x264-Ganesh

(7160 Mo)

[Liens Interchangeables entre hébergeurs: 7x 1000 Mo + 1x 160 Mo]

Uptobox
Télécharger

Uploaded
Télécharger

TurboBit
Télécharger

Rapidgator
Télécharger

Uplea
Télécharger

1fichier
Télécharger

[Liens Premium]

Uptobox
Télécharger

Uploaded
Télécharger

TurboBit
Télécharger

Uplea
Télécharger

1fichier
Télécharger

NFO :

Afficher / Masquer le texte 280aecb2b56e477927f7d96236ceef4b » class= »text_spoiler » style= »display:none; »>General

Complete name : The.Rock.1996.FRENCH.720p.BluRay.DTS.x264-Ganesh.mkv
Format : Matroska
Format version : Version 2
File size : 7.16 GiB
Duration : 2h 16mn
Overall bit rate : 7 508 Kbps
Movie name : The.Rock.1996.FRENCH.720p.BluRay.DTS.x264-Ganesh
Encoded date : UTC 2014-01-18 22:28:30
Writing application : mkvmerge v3.3.0 (‘Language’) built on May 9 2010 02:39:50
Writing library : libebml v0.7.7 + libmatroska v0.8.1
Attachment : Yes

Video
ID : 1
Format : AVC
Format/Info : Advanced Video Codec
Format profile : [email protected]
Format settings, CABAC : Yes
Format settings, ReFrames : 7 frames
Codec ID : V_MPEG4/ISO/AVC
Duration : 2h 16mn
Bit rate : 5 849 Kbps
Width : 1 280 pixels
Height : 544 pixels
Display aspect ratio : 2.35:1
Frame rate : 23.976 fps
Color space : YUV
Chroma subsampling : 4:2:0
Bit depth : 8 bits
Scan type : Progressive
Bits/(Pixel*Frame) : 0.350
Stream size : 5.58 GiB (78%)
Title : AVC
Writing library : x264 core 128 r2M 198a7ea
Encoding settings : cabac=1 / ref=7 / deblock=1:-3:-3 / analyse=0x3:0x113 / me=umh /
subme=10 / psy=1 / fade_compensate=0.00 / psy_rd=1.00:0.20 / mixed_ref=1 / me_range=64 / chroma_me=1 /
trellis=2 / 8x8dct=1 / cqm=0 / deadzone=6,6 / fast_pskip=0 / chroma_qp_offset=-3 / threads=12 /
lookahead_threads=2 / sliced_threads=0 / nr=0 / decimate=0 / interlaced=0 / bluray_compat=0 /
constrained_intra=0 / bframes=6 / b_pyramid=2 / b_adapt=2 / b_bias=0 / direct=1 / weightb=1 /
open_gop=1 / weightp=2 / keyint=250 / keyint_min=23 / scenecut=40 / intra_refresh=0 / rc_lookahead=210 /
rc=crf / mbtree=1 / crf=20.0 / qcomp=0.75 / qpmin=0 / qpmax=69 / qpstep=4 / vbv_maxrate=50000 /
vbv_bufsize=50000 / crf_max=0.0 / nal_hrd=none / ip_ratio=1.40 / aq=2:0.75
Language : English
Default : Yes
Forced : No

Audio
ID : 2
Format : DTS
Format/Info : Digital Theater Systems
Codec ID : A_DTS
Duration : 2h 16mn
Bit rate mode : Constant
Bit rate : 1 510 Kbps
Channel(s) : 6 channels
Channel positions : Front: L C R, Side: L R, LFE
Sampling rate : 48.0 KHz
Bit depth : 24 bits
Compression mode : Lossy
Delay relative to video : 11ms
Stream size : 1.44 GiB (20%)
Title : DTS 5.1
Language : French
Default : Yes
Forced : No

Text
ID : 3
Format : UTF-8
Codec ID : S_TEXT/UTF8
Codec ID/Info : UTF-8 Plain Text
Title : Fr Forces
Language : French
Default : No
Forced : Yes

Menu
00:00:00.000 : en:00:00:00.000
00:00:35.035 : en:00:00:35.035
00:03:51.022 : en:00:03:51.022
00:07:57.518 : en:00:07:57.518
00:14:17.773 : en:00:14:17.773
00:16:18.477 : en:00:16:18.477
00:24:59.080 : en:00:24:59.080
00:26:46.605 : en:00:26:46.605
00:28:43.763 : en:00:28:43.763
00:39:45.633 : en:00:39:45.633
00:43:41.744 : en:00:43:41.744
00:49:41.812 : en:00:49:41.812
00:53:48.934 : en:00:53:48.934
00:55:31.244 : en:00:55:31.244
00:59:20.598 : en:00:59:20.598
01:04:47.425 : en:01:04:47.425
01:09:15.568 : en:01:09:15.568
01:14:07.401 : en:01:14:07.401
01:17:09.124 : en:01:17:09.124
01:18:47.639 : en:01:18:47.639
01:24:17.510 : en:01:24:17.510
01:28:56.956 : en:01:28:56.956
01:34:33.125 : en:01:34:33.125
01:39:54.238 : en:01:39:54.238
01:43:04.678 : en:01:43:04.678
01:46:29.549 : en:01:46:29.549
01:49:50.041 : en:01:49:50.041
01:53:01.108 : en:01:53:01.108
01:57:08.563 : en:01:57:08.563
02:00:09.702 : en:02:00:09.702
02:06:17.653 : en:02:06:17.653
02:10:10.636 : en:02:10:10.636

Jeux Gratuit
15354131_1854970838071206_1069261547_o.png