Telecharger Romeo + Juliette [BLURAY 720p] French

BLURAY 720p | FRENCH | DTS

Romeo   Juliette

Romeo   Juliette

Romeo   Juliette

Origine du film : Américain
Réalisateur : Baz Luhrmann
Acteurs : Leonardo DiCaprio, Claire Danes, John Leguizamo
Genre : Drame
Durée : 2h 0min
Date de sortie : 9 avril 1997
Année de production : 1996
Titre Original : William Shakespeare's Romeo Juliet
Note presse : Romeo   Juliette 3,5/5
Note spectateurs : Romeo   Juliette 3,5/5 (13170)
Bande annonce :

271fa4a3fc99fc70e4a0b27949de8af6

19376923″>Cliquez-ici pour voir la bande annonce 271fa4a3fc99fc70e4a0b27949de8af6″> 19376923

271fa4a3fc99fc70e4a0b27949de8af6

Romeo   Juliette

Adaptation de la plus célèbre pièce de Shakespeare, évoquant la passion d'un jeune couple appartenant à deux familles ancestralement ennemies, replacée à notre époque de bruit et de fureur mais avec le texte intégral de l'auteur.

Nom de la release : Romeo.Juliet.1996.FRENCH.720p.BluRay.DTS.x264-Ganesh 13666″ style= »display:inline; »>

Qualité : BLURAY 720p
Format : MKV
Langue : Français
Sous-titre : Français
Découpé avec : Winrar
Nombre de fichiers : 7 Fichiers
Taille des fichiers : 950 Mo 890 Mo
Taille totale : 6590 Mo

[Liens Interchangeables]

Uploaded.to
Télécharger

Uptobox.com
Télécharger

TurboBit.net
Télécharger

Rapidgator.net
Télécharger

[1 lien Premium – 6,5 Go]

Turbobit Premium
Télécharger

Uptobox.com Premium
Télécharger

NFO :

Afficher / Masquer le texte 76e968173c3fca9a6fd13751ddfac284″ class= »text_spoiler » style= »display:none; »>Romeo Juliet 1996 FRENCH 720p BluRay DTS x264-Ganesh.mkv
Format : Matroska
Format version : Version 2
File size : 6.42 GiB
Duration : 2h 0mn
Overall bit rate : 7 643 Kbps
Writing application : HandBrake rev0
Writing library : libmkv 0.6.5

Video
ID : 1
Format : AVC
Format/Info : Advanced Video Codec
Format profile : [email protected]
Format settings, CABAC : Yes
Format settings, ReFrames : 4 frames
Codec ID : V_MPEG4/ISO/AVC
Duration : 2h 0mn
Bit rate : 6 736 Kbps
Width : 1 280 pixels
Height : 534 pixels
Display aspect ratio : 2.40:1
Frame rate mode : Variable
Frame rate : 23.976 fps
Color space : YUV
Chroma subsampling : 4:2:0
Bit depth : 8 bits
Scan type : Progressive
Bits/(Pixel*Frame) : 0.411
Stream size : 5.65 GiB (88%)
Writing library : x264 core 125
Encoding settings : cabac=1 / ref=4 / deblock=1:-3:-3 / analyse=0x1:0x111 / me=umh / subme=8 / psy=1 / psy_rd=1,00:0,00 / mixed_ref=1 / me_range=32 / chroma_me=1 / trellis=0 / 8x8dct=0 / cqm=0 / deadzone=21,11 / fast_pskip=1 / chroma_qp_offset=-2 / threads=12 / lookahead_threads=2 / sliced_threads=0 / nr=0 / decimate=1 / interlaced=0 / bluray_compat=0 / constrained_intra=0 / bframes=3 / b_pyramid=2 / b_adapt=1 / b_bias=0 / direct=1 / weightb=1 / open_gop=0 / weightp=1 / keyint=240 / keyint_min=24 / scenecut=40 / intra_refresh=0 / rc_lookahead=10 / rc=crf / mbtree=1 / crf=18,0 / qcomp=0,60 / qpmin=3 / qpmax=69 / qpstep=4 / ip_ratio=1,40 / aq=1:1,00
Language : English
Default : Yes
Forced : No
Color primaries : BT.709-5, BT.1361, IEC 61966-2-4, SMPTE RP177
Transfer characteristics : BT.709-5, BT.1361
Matrix coefficients : BT.709-5, BT.1361, IEC 61966-2-4 709, SMPTE RP177

Audio
ID : 2
Format : DTS
Format/Info : Digital Theater Systems
Codec ID : A_DTS
Duration : 2h 0mn
Bit rate mode : Constant
Bit rate : 754 Kbps
Channel(s) : 6 channels
Channel positions : Front: L C R, Side: L R, LFE
Sampling rate : 48.0 KHz
Bit depth : 24 bits
Compression mode : Lossy
Stream size : 649 MiB (10%)
Default : Yes
Forced : No