Télécharger Romy French

Qualité DVDRiP | FRENCH

Romy

Romy

Romy

Origine du film : Allemand
Réalisateur : Torsten C. Fischer
Acteurs : Jessica Schwarz, Thomas Kretschmann, Guillaume Delorme
Genre : Biopic, Drame
Durée : 1h46min
Année de production : 2009
Note spectateurs : Romy 3/5 (2)
Bande annonce :

1e97710c2f675ce45f1fee846d1608b3

19349609″>Cliquez-ici pour voir la bande annonce 1e97710c2f675ce45f1fee846d1608b3″> 19349609

1e97710c2f675ce45f1fee846d1608b3

Romy

La vie de l'actrice allemande naturalisée française, Romy Schneider, qui connaît la renommée internationale dès l'âge de dix-sept ans grâce à son fameux rôle Sissi dans le film d'Ernst Marischka : "Sissi l'impératrice". 38981″ style= »display:inline; »>

Qualité : DVDRiP
Langue : Français

Romy.2012.FRENCH.DVDRiP.XViD-STVFRV ( 700 Mo)

1fichier
Télécharger

Uptobox
Télécharger

Free
Télécharger

Uploaded
Télécharger

Rapidgator
Télécharger

TurboBit
Télécharger

NFO :

Afficher / Masquer le texte 09f9164c3ba2a8d62f691e55fec78e39″ class= »text_spoiler » style= »display:none; »>General
Complete name : Romy.2012.FRENCH.DVDRiP.XViD-STVFRV.avi
Format : AVI
Format/Info : Audio Video Interleave
File size : 684 MiB
Duration : 1h 44mn
Overall bit rate : 915 Kbps
Writing application : VirtualDubMod 1.5.1.1a (build 1155/release)
Writing library : VirtualDubMod build 1155/release

Video
ID : 0
Format : MPEG-4 Visual
Format profile : Advanced [email protected]
Format settings, BVOP : Yes
Format settings, QPel : No
Format settings, GMC : No warppoints
Format settings, Matrix : Default (H.263)
Muxing mode : Packed bitstream
Codec ID : XVID
Codec ID/Hint : XviD
Duration : 1h 44mn
Bit rate : 803 Kbps
Width : 576 pixels
Height : 432 pixels
Display aspect ratio : 4:3
Frame rate : 25.000 fps
Color space : YUV
Chroma subsampling : 4:2:0
Bit depth : 8 bits
Scan type : Progressive
Bits/(Pixel*Frame) : 0.129
Stream size : 600 MiB (88%)
Writing library : XviD 1.1.2 (UTC 2006-11-01)

Audio
ID : 1
Format : MPEG Audio
Format version : Version 1
Format profile : Layer 3
Codec ID : 55
Codec ID/Hint : MP3
Duration : 1h 44mn
Bit rate mode : Variable
Bit rate : 99.0 Kbps
Channel(s) : 2 channels
Sampling rate : 48.0 KHz
Stream size : 74.1 MiB (11%)
Alignment : Aligned on interleaves
Interleave, duration : 24 ms (0.60 video frame)
Interleave, preload duration : 446 ms