Telecharger Rush Hour 2 [BLURAY 720p] French

HDTV 720p | MULTiLANGUES | AC3

Rush Hour 2

Rush Hour 2

Rush Hour 2

Origine du film : Américain
Réalisateur : Brett Ratner
Acteurs : Jackie Chan, Chris Tucker, Zhang Ziyi
Genre : Comédie, Policier, Action
Durée : 1h 30min
Date de sortie : 29 août 2001,
Année de production : 2001
Distribué par : Metropolitan FilmExport
Note presse : Rush Hour 2 3,2/5
Note spectateurs : Rush Hour 2

; »>2,7/5 (4 836)
Bande annonce :

f0dfc67067d8efc731dbfd268a0b42d8

19465294″>Cliquez-ici pour voir la bande annonce f0dfc67067d8efc731dbfd268a0b42d8″> 19465294

f0dfc67067d8efc731dbfd268a0b42d8

Rush Hour 2

L'agent James Carter rejoint son vieil ami l'inspecteur Lee pour passer, à Hong Kong, ce qui devrait être de reposantes vacances.Mais lorsqu'une bombe explose à l'ambassade américaine, tuant deux agents des douanes enquêtant sur un trafic de faux billets. La police suspectant Ricky Tan, chef de la Triade, confie l'affaire à Lee.À regret, Carter voit ses projets de repos s'écrouler, d'autant plus que pour son compère, l'affaire est personnelle : Ricky Tan était autrefois le partenaire de son père dans la police et a joué un rôle direct dans sa mort… Cette fois, c'est Lee qui guide son collègue dans un pays inconnu, et quand on connaît le bon caractère de Carter et sa discrétion, nul doute que tout sera simple… De Hong Kong à Los Angeles et Las Vegas, l'enquête risque d'être explosive.

Nom de la release : Rush.Hour.2.2001.HDTV.MULTI.720p.BluRay.x264-LiberTeam 33951″ style= »display:inline; »>

Qualité : HDTV 720p
Format : MKV
Langue : Multilangage
Sous-titre : Multi
Découpé avec : Winrar
Nombre de fichiers : 5 Fichiers
Taille des fichiers : 1000 Mo 760 Mo
Taille totale : 4760 Mo

[5 Liens Interchangeables : 4 x 1000 Mo 1 x 760 Mo]

1fichier
Télécharger

Uptobox
Télécharger

Free
Télécharger

Uploaded
Télécharger

Rapidgator
Télécharger

TurboBit
Télécharger

[1 Lien PREMIUM : 1 x 4.65 GB]

1fichier
Télécharger

Uptobox
Télécharger

Uploaded
Télécharger

TurboBit
Télécharger

NFO :

Afficher / Masquer le texte 9b87435ea7786f609f9d94b8e00d6ab0″ class= »text_spoiler » style= »display:none; »>Complete name : Rush.Hour.2.2001.HDTV.MULTI.720p.BluRay.x264-LiberTeam.mkv
Format : Matroska
Format version : Version 2
File size : 4.65 GiB
Duration : 1h 30mn
Overall bit rate : 7 369 Kbps
Encoded date : UTC 2011-11-24 21:12:25
Writing application : mkvmerge v3.4.0 ('Rapunzel') built on May 15 2010 09:38:20
Writing library : libebml v0.8.0 libmatroska v0.9.0

Video
ID : 1
Format : AVC
Format/Info : Advanced Video Codec
Format profile : [email protected]
Format settings, CABAC : Yes
Format settings, ReFrames : 4 frames
Codec ID : V_MPEG4/ISO/AVC
Duration : 1h 30mn
Bit rate : 6 557 Kbps
Width : 1 280 pixels
Height : 512 pixels
Display aspect ratio : 2.500
Frame rate mode : Constant
Frame rate : 23.976 fps
Color space : YUV
Chroma subsampling : 4:2:0
Bit depth : 8 bits
Scan type : Progressive
Bits/(Pixel*Frame) : 0.417
Stream size : 4.03 GiB (87%)
Writing library : x264 core 48 svn-537
Encoding settings : cabac=1 / ref=3 / deblock=1:0:0 / analyse=0x3:0x113 / me=hex / subme=5 / brdo=0 / mixed_ref=0 / me_range=16 / chroma_me=1 / trellis=1 / 8x8dct=1 / cqm=0 / chroma_qp_offset=0 / slices=4 / nr=0 / decimate=1 / bframes=3 / b_pyramid=0 / b_adapt=1 / b_bias=0 / direct=2 / wpredb=1 / bime=0 / keyint=250 / keyint_min=25 / scenecut=40 / rc=2pass / bitrate=6557 / ratetol=1.0 / rceq='blurCplx^(1-qComp)' / qcomp=0.60 / qpmin=10 / qpmax=51 / qpstep=4 / cplxblur=20.0 / qblur=0.5 / ip_ratio=1.40 / pb_ratio=1.30
Language : English
Default : Yes
Forced : No

Audio #1
ID : 2
Format : AC-3
Format/Info : Audio Coding 3
Mode extension : CM (complete main)
Format settings, Endianness : Big
Codec ID : A_AC3
Duration : 1h 30mn
Bit rate mode : Constant
Bit rate : 384 Kbps
Channel count : 2 channels
Channel positions : Front: L R
Sampling rate : 48.0 KHz
Bit depth : 16 bits
Compression mode : Lossy
Delay relative to video : -125ms
Stream size : 248 MiB (5%)
Language : English
Default : No
Forced : No

Audio #2
ID : 3
Format : AC-3
Format/Info : Audio Coding 3
Mode extension : CM (complete main)
Format settings, Endianness : Big
Codec ID : A_AC3
Duration : 1h 30mn
Bit rate mode : Constant
Bit rate : 448 Kbps
Channel count : 6 channels
Channel positions : Front: L C R, Side: L R, LFE
Sampling rate : 48.0 KHz
Bit depth : 16 bits
Compression mode : Lossy
Delay relative to video : 16s 475ms
Stream size : 289 MiB (6%)
Language : French
Default : Yes
Forced : No

Text #1
ID : 4
Format : UTF-8
Codec ID : S_TEXT/UTF8
Codec ID/Info : UTF-8 Plain Text
Title : FR Complet
Language : French
Default : No
Forced : No

Text #2
ID : 5
Format : UTF-8
Codec ID : S_TEXT/UTF8
Codec ID/Info : UTF-8 Plain Text
Title : FR Forced
Language : French
Default : Yes
Forced : No