Telecharger Rush Hour 3 [BLURAY 720p] French

BLURAY 720p | MULTiLANGUES | VO DTS | VF AC3

Rush Hour 3

Rush Hour 3

Rush Hour 3

Origine du film : Américain
Réalisateur : Brett Ratner
Acteurs : Jackie Chan, Chris Tucker, Max von Sydow
Genre : Action, Comédie
Durée : 1h 30min
Date de sortie : 17 octobre 2007,
Année de production : 2007
Distribué par : Metropolitan FilmExport
Note presse : Rush Hour 3 1,8/5
Note spectateurs : Rush Hour 3

; »>2,3/5 (3 488)
Bande annonce :

ca5ea89a67630ad90edd2730c246dea5

18732431″>Cliquez-ici pour voir la bande annonce ca5ea89a67630ad90edd2730c246dea5″> 18732431

ca5ea89a67630ad90edd2730c246dea5

Rush Hour 3

Dans quelques heures, l'ambassadeur chinois Han compte révéler l'identité du maître du plus puissant syndicat criminel du monde, les Triades chinoises. Lee est chargé de le protéger.Lorsque Carter, relégué depuis quelque temps à la circulation, apprend que l'ambassadeur vient de se faire tirer dessus, il se précipite sur les lieux pour intervenir, mais il ne parvient qu'à gêner Lee et à permettre à l'assassin de s'enfuir. Déterminé à regagner ses galons, Carter insiste pour aider Lee à retrouver l'assassin et à résoudre le mystère des Triades.Les indices vont conduire l'improbable duo jusqu'à Paris. Là-bas, perdus dans un pays dont ils ne connaissent rien et face à une bande de tueurs décidés à les éliminer par tous les moyens, ils vont vite se retrouver dans le pétrin jusqu'au cou. Une seule chose est certaine : à Paris comme ailleurs, ils risquent de faire beaucoup de joyeux dégâts…

Nom de la release : Rush.Hour.3.2007.MULTI.720p.BluRay.x264-LiberTeam 33954″ style= »display:inline; »>

Qualité : BLURAY 720p
Format : MKV
Langue : Multilangage
Sous-titre : Multi
Découpé avec : Winrar
Nombre de fichiers : 5 Fichiers
Taille des fichiers : 1000 Mo 768 Mo
Taille totale : 4768 Mo

[5 Liens Interchangeables : 4 x 1000 Mo 1 x 768 Mo]

1fichier
Télécharger

Uptobox
Télécharger

Free
Télécharger

Uploaded
Télécharger

Rapidgator
Télécharger

TurboBit
Télécharger

[1 Lien PREMIUM : 1 x 4.66 GB]

1fichier
Télécharger

Uptobox
Télécharger

Uploaded
Télécharger

TurboBit
Télécharger

NFO :

Afficher / Masquer le texte f0b71452a35f7f287c825185fb41148b » class= »text_spoiler » style= »display:none; »>Complete name : Rush.Hour.3.2007.MULTI.720p.BluRay.x264-LiberTeam.mkv
Format : Matroska
Format version : Version 2
File size : 4.66 GiB
Duration : 1h 30mn
Overall bit rate : 7 344 Kbps
Encoded date : UTC 2011-11-25 11:43:25
Writing application : mkvmerge v3.4.0 ('Rapunzel') built on May 15 2010 09:38:20
Writing library : libebml v0.8.0 libmatroska v0.9.0

Video
ID : 2
Format : AVC
Format/Info : Advanced Video Codec
Format profile : [email protected]
Format settings, CABAC : Yes
Format settings, ReFrames : 8 frames
Codec ID : V_MPEG4/ISO/AVC
Duration : 1h 30mn
Bit rate : 5 384 Kbps
Width : 1 280 pixels
Height : 528 pixels
Display aspect ratio : 2.40:1
Frame rate mode : Constant
Frame rate : 23.976 fps
Color space : YUV
Chroma subsampling : 4:2:0
Bit depth : 8 bits
Scan type : Progressive
Bits/(Pixel*Frame) : 0.332
Stream size : 3.32 GiB (71%)
Writing library : x264 core 57 svn-709C
Encoding settings : cabac=1 / ref=5 / deblock=1:0:0 / analyse=0x3:0x113 / me=umh / fpel_cmp=sad / subme=6 / me-prepass=0 / brdo=0 / mixed_ref=1 / me_range=16 / chroma_me=1 / trellis=1 / 8x8dct=1 / cqm=2 / deadzone=4,6 / chroma_qp_offset=0 / threads=3 / nr=0 / decimate=1 / mbaff=0 / bframes=3 / b_pyramid=1 / b_adapt=1 / b_bias=0 / direct=3 / wpredb=1 / bime=1 / keyint=250 / keyint_min=25 / scenecut=40(pre) / rc=2pass / bitrate=5384 / ratetol=1.0 / rceq='blurCplx^(1-qComp)' / qcomp=0.60 / qpmin=10 / qpmax=51 / qpstep=4 / cplxblur=20.0 / qblur=0.5 / ip_ratio=1.40 / pb_ratio=1.30 / zones=121627,130606,b=0.2 / aq=1:0.3:15.0
Language : English
Default : Yes
Forced : No

Audio #1
ID : 1
Format : DTS
Format/Info : Digital Theater Systems
Mode : 16
Format settings, Endianness : Big
Codec ID : A_DTS
Duration : 1h 30mn
Bit rate mode : Constant
Bit rate : 1 509 Kbps
Channel count : 6 channels
Channel positions : Front: L C R, Side: L R, LFE
Sampling rate : 48.0 KHz
Bit depth : 24 bits
Compression mode : Lossy
Stream size : 980 MiB (21%)
Language : English
Default : No
Forced : No

Audio #2
ID : 3
Format : AC-3
Format/Info : Audio Coding 3
Mode extension : CM (complete main)
Format settings, Endianness : Big
Codec ID : A_AC3
Duration : 1h 30mn
Bit rate mode : Constant
Bit rate : 448 Kbps
Channel count : 6 channels
Channel positions : Front: L C R, Side: L R, LFE
Sampling rate : 48.0 KHz
Bit depth : 16 bits
Compression mode : Lossy
Delay relative to video : 1s 0ms
Stream size : 291 MiB (6%)
Language : French
Default : Yes
Forced : No

Text #1
ID : 4
Format : UTF-8
Codec ID : S_TEXT/UTF8
Codec ID/Info : UTF-8 Plain Text
Title : SRT Complet
Language : French
Default : No
Forced : No

Text #2
ID : 5
Format : UTF-8
Codec ID : S_TEXT/UTF8
Codec ID/Info : UTF-8 Plain Text
Title : SRT Forced
Language : French
Default : Yes
Forced : No