Telecharger Rush Hour [BLURAY 720p] French

BLURAY 720p | MULTiLANGUES | VO DTS | VF AC3

Rush Hour

Rush Hour

Rush Hour

Origine du film : Américain
Réalisateur : Brett Ratner
Acteurs : Jackie Chan, Elizabeth Pena, Tom Wilkinson
Genre : Policier, Comédie, Action
Durée : 1h 35min
Date de sortie : 27 janvier 1999,
Année de production : 1998
Distribué par : Metropolitan FilmExport
Note presse : Rush Hour 3,4/5
Note spectateurs : Rush Hour

; »>3/5 (6 425)
Bande annonce :

fa15343ca32e46bcf507b22dad7c489b

15067031″>Cliquez-ici pour voir la bande annonce fa15343ca32e46bcf507b22dad7c489b »> 15067031

fa15343ca32e46bcf507b22dad7c489b

Rush Hour

L'inspecteur Lee est un des fleurons de la police royale de Hong Kong. Sa placidité ne laisse rien soupçonner de son génie des arts martiaux. Agée de onze ans, la fille du consul de Chine aux Etats-Unis fut son élève préférée, il en était le garde du corps, il en est resté le meilleur ami. Lorsqu'elle est enlevée par les hommes d'un maître du crime, qui a jadis abattu son coéquipier, Lee saute dans l'avion, bien decidé à retrouver la fillette et à chatier ses ravisseurs. Seulement le FBI ne veut pas être dérangé dans son enquête par un étranger.

Nom de la release : Rush.Hour.1998.MULTI.720p.BluRay.x264-LiberTeam 33949″ style= »display:inline; »>

Qualité : BLURAY 720p
Format : MKV
Langue : Multilangage
Sous-titre : Multi
Découpé avec : Winrar
Nombre de fichiers : 5 Fichiers
Taille des fichiers : 1000 Mo 785 Mo
Taille totale : 4785 Mo

[5 Liens Interchangeables : 4 x 1000 Mo 1 x 785 Mo]

1fichier
Télécharger

Uptobox
Télécharger

Free
Télécharger

Uploaded
Télécharger

Rapidgator
Télécharger

TurboBit
Télécharger

[1 Lien PREMIUM : 1 x 4.67 GB]

1fichier
Télécharger

Uptobox
Télécharger

Uploaded
Télécharger

TurboBit
Télécharger

NFO :

Afficher / Masquer le texte 0cf04e6b6fe54c3e0a13e2542ba3838d » class= »text_spoiler » style= »display:none; »>Complete name : Rush.Hour.1998.MULTI.720p.BluRay.x264-LiberTeam.mkv
Format : Matroska
Format version : Version 2
File size : 4.67 GiB
Duration : 1h 37mn
Overall bit rate mode : Variable
Overall bit rate : 6 839 Kbps
Encoded date : UTC 2011-08-31 18:37:23
Writing application : mkvmerge v3.4.0 ('Rapunzel') built on May 15 2010 09:38:20
Writing library : libebml v0.8.0 libmatroska v0.9.0

Video
ID : 1
Format : AVC
Format/Info : Advanced Video Codec
Format profile : [email protected]
Format settings, CABAC : Yes
Format settings, ReFrames : 8 frames
Codec ID : V_MPEG4/ISO/AVC
Duration : 1h 37mn
Bit rate : 4 760 Kbps
Width : 1 280 pixels
Height : 522 pixels
Display aspect ratio : 2.452
Frame rate mode : Constant
Frame rate : 23.976 fps
Color space : YUV
Chroma subsampling : 4:2:0
Bit depth : 8 bits
Scan type : Progressive
Bits/(Pixel*Frame) : 0.297
Stream size : 3.16 GiB (68%)
Title : x264
Writing library : x264 core 98 r1649 20cbe10
Encoding settings : cabac=1 / ref=9 / deblock=1:-3:-3 / analyse=0x3:0x113 / me=tesa / subme=10 / psy=1 / psy_rd=1.00:0.00 / mixed_ref=1 / me_range=64 / chroma_me=1 / trellis=2 / 8x8dct=1 / cqm=0 / deadzone=21,11 / fast_pskip=0 / chroma_qp_offset=-2 / threads=6 / sliced_threads=0 / nr=0 / decimate=1 / interlaced=0 / constrained_intra=0 / bframes=6 / b_pyramid=1 / b_adapt=2 / b_bias=0 / direct=3 / weightb=1 / weightp=2 / keyint=250 / keyint_min=25 / scenecut=40 / intra_refresh=0 / rc_lookahead=40 / rc=2pass / mbtree=1 / bitrate=4760 / ratetol=1.0 / qcomp=0.60 / qpmin=10 / qpmax=51 / qpstep=4 / cplxblur=20.0 / qblur=0.5 / ip_ratio=1.40 / aq=1:0.80
Language : English
Default : No
Forced : No

Audio #1
ID : 2
Format : DTS
Format/Info : Digital Theater Systems
Format profile : ES
Mode : 16
Format settings, Endianness : Big
Codec ID : A_DTS
Duration : 1h 37mn
Bit rate mode : Constant
Bit rate : 1 509 Kbps
Channel count : 6 channels
Channel positions : Front: L C R, Side: L R, LFE
Sampling rate : 48.0 KHz
Bit depth : 24 bits
Compression mode : Lossy
Stream size : 1.03 GiB (22%)
Title : DTS 5.1
Language : English
Default : No
Forced : No

Audio #2
ID : 3
Format : Vorbis
Format settings, Floor : 1
Codec ID : A_VORBIS
Duration : 1h 37mn
Bit rate mode : Variable
Bit rate : 64.0 Kbps
Channel count : 2 channels
Sampling rate : 48.0 KHz
Compression mode : Lossy
Stream size : 44.8 MiB (1%)
Title : Commentary 1
Writing library : libVorbis 20090709 (UTC 2009-07-09)
Language : English
Default : No
Forced : No

Audio #3
ID : 4
Format : Vorbis
Format settings, Floor : 1
Codec ID : A_VORBIS
Duration : 1h 37mn
Bit rate mode : Variable
Bit rate : 64.0 Kbps
Channel count : 2 channels
Sampling rate : 48.0 KHz
Compression mode : Lossy
Stream size : 44.8 MiB (1%)
Title : Commentary 2
Writing library : libVorbis 20090709 (UTC 2009-07-09)
Language : English
Default : No
Forced : No

Audio #4
ID : 6
Format : AC-3
Format/Info : Audio Coding 3
Mode extension : CM (complete main)
Format settings, Endianness : Big
Codec ID : A_AC3
Duration : 1h 37mn
Bit rate mode : Constant
Bit rate : 448 Kbps
Channel count : 6 channels
Channel positions : Front: L C R, Side: L R, LFE
Sampling rate : 48.0 KHz
Bit depth : 16 bits
Compression mode : Lossy
Delay relative to video : 2s 100ms
Stream size : 313 MiB (7%)
Language : French
Default : Yes
Forced : No

Text #1
ID : 5
Format : UTF-8
Codec ID : S_TEXT/UTF8
Codec ID/Info : UTF-8 Plain Text
Language : English
Default : No
Forced : No

Text #2
ID : 7
Format : UTF-8
Codec ID : S_TEXT/UTF8
Codec ID/Info : UTF-8 Plain Text
Language : French
Default : No
Forced : No

Text #3
ID : 8
Format : UTF-8
Codec ID : S_TEXT/UTF8
Codec ID/Info : UTF-8 Plain Text
Language : French
Default : Yes
Forced : No

Jeux Gratuit
15354131_1854970838071206_1069261547_o.png