Telecharger S.O.S. Fantômes [DVDRiP] French

(TRUEFRENCH = Vraie voix française)

BLURAY 720p | TRUEFRENCH

S.O.S. Fantômes

S.O.S. Fantômes

S.O.S. Fantômes

Origine du film : Américain
Réalisateur : Ivan Reitman
Acteurs : Bill Murray, Dan Aykroyd, Harold Ramis
Genre : Comédie
Durée : 1h45min
Date de sortie : 12 décembre 1984
Année de production : 1984
Titre Original : Ghostbusters
Note presse : S.O.S. Fantômes 3,2/5
Note spectateurs : S.O.S. Fantômes

; »>3,9/5 (16 980)

S.O.S. Fantômes

Peter, Raymond et Egon effectuent des recherches sur la parapsychologie. Virés par le Doyen de la faculté, ils décident de fonder une société destinée à chasser les revenants. Son nom : S.O.S. Fantômes. Le succès frappe tant et si bien à leur porte qu’ils en sont bientôt à travailler à la chaîne. 43546″ style= »display:inline; »>

Qualité : BLURAY 720p
Format : MKV
Langue : Français
Découpé avec : Winrar
Nombre de fichiers : 5 Fichiers
Taille des fichiers : 1000 Mo 476 Mo

[5 Liens Interchangeables : 4 x 1000 Mo 1 x 476 Mo]

Ghostbusters.1984.720p.FRENCH.BluRay.x264-ForceBleue ( 4476 Mo)

1fichier
Télécharger

Uptobox
Télécharger

Uploaded
Télécharger

Rapidgator
Télécharger

TurboBit
Télécharger

[1 Lien PREMIUM : 1 x ]

1fichier
Télécharger

Uptobox
Télécharger

Uploaded
Télécharger

TurboBit
Télécharger

NFO :

Afficher / Masquer le texte 1e4e46c44cbec0ea63ac4886f62b0225″ class= »text_spoiler » style= »display:none; »>General
Complete name : Ghostbusters.1984.720p.FRENCH.BluRay.x264-ForceBleue.mkv
Format : Matroska
Format version : Version 2
File size : 4.37 GiB
Duration : 1h 45mn
Overall bit rate : 5 953 Kbps
Encoded date : UTC 2009-06-05 11:43:18
Writing application : mkvmerge v2.7.0 ('Do It Again') built on Apr 15 2009 00:27:10
Writing library : libebml v0.7.7 libmatroska v0.8.1

Video
ID : 1
Format : AVC
Format/Info : Advanced Video Codec
Format profile : [email protected]
Format settings, CABAC : Yes
Format settings, ReFrames : 5 frames
Codec ID : V_MPEG4/ISO/AVC
Duration : 1h 45mn
Bit rate : 5 312 Kbps
Width : 1 280 pixels
Height : 536 pixels
Display aspect ratio : 2.40:1
Frame rate : 23.976 fps
Color space : YUV
Chroma subsampling : 4:2:0
Bit depth : 8 bits
Scan type : Progressive
Bits/(Pixel*Frame) : 0.323
Stream size : 3.81 GiB (87%)
Writing library : x264 core 67 r1162M f7bfcfa
Encoding settings : cabac=1 / ref=5 / deblock=1:0:0 / analyse=0x3:0x133 / me=umh / subme=7 / psy_rd=1.0:0.0 / mixed_ref=1 / me_range=16 / chroma_me=1 / trellis=1 / 8x8dct=1 / cqm=0 / deadzone=21,11 / chroma_qp_offset=-2 / threads=6 / nr=0 / decimate=1 / mbaff=0 / bframes=3 / b_pyramid=1 / b_adapt=1 / b_bias=0 / direct=1 / wpredb=1 / keyint=250 / keyint_min=25 / scenecut=40 / rc=2pass / bitrate=5312 / ratetol=1.0 / qcomp=0.60 / qpmin=10 / qpmax=51 / qpstep=4 / cplxblur=20.0 / qblur=0.5 / ip_ratio=1.40 / pb_ratio=1.30 / aq=1:1.00
Language : English
Default : Yes
Forced : No

Audio
ID : 2
Format : AC-3
Format/Info : Audio Coding 3
Mode extension : CM (complete main)
Format settings, Endianness : Big
Codec ID : A_AC3
Duration : 1h 45mn
Bit rate mode : Constant
Bit rate : 640 Kbps
Channel(s) : 6 channels
Channel positions : Front: L C R, Side: L R, LFE
Sampling rate : 48.0 KHz
Bit depth : 16 bits
Compression mode : Lossy
Stream size : 481 MiB (11%)
Title : 5.1 640 Kbps
Language : French
Default : Yes
Forced : No

Text
ID : 3
Format : UTF-8
Codec ID : S_TEXT/UTF8
Codec ID/Info : UTF-8 Plain Text
Title : Forced
Language : French
Default : Yes
Forced : No

Jeux Gratuit
15354131_1854970838071206_1069261547_o.png