Telecharger Saat po long [BLURAY 720p] French

Qualité BLURAY 720p | MULTiLANGUES

Saat po long

Saat po long

Origine du film : Hong-Kongais
Réalisateur : Wilson Yip
Acteurs : Donnie Yen, Sammo Hung Kam-Bo, Jacky Wu
Genre : Arts Martiaux, Drame, Action, Policier
Durée : 1h33min
Année de production : 2005
Note spectateurs : Saat po long

; »>3,6/5 (233)
Bande annonce :

1c0e27b559ee39d4b4def8d9a18a622e

19499263″>Cliquez-ici pour voir la bande annonce 1c0e27b559ee39d4b4def8d9a18a622e »> 19499263

1c0e27b559ee39d4b4def8d9a18a622e

Saat po long

Le détective Chan met tout en oeuvre pour arrêter Po, un chef de gang impitoyable. Il est aidé par Ma, un policier intègre, expert en arts martiaux, dont les méthodes violentes déplaisent à la hiérarchie.
102184″ style= »display:inline; »>

Saat po long

Format : MKV
Découpé avec : Winrar

Saat po long

S P L 2005 MULTi 720p BluRay x264-KAiOh

(4688 Mo)

[Liens Interchangeables entre hébergeurs: 4x 1000 Mo + 1x 688 Mo]

Uptobox
Télécharger

Uplea
Télécharger

1fichier
Télécharger

Uploaded
Télécharger

Rapidgator
Télécharger

TurboBit
Télécharger

[ Liens Premium ]

Uptobox
Télécharger

Uplea
Télécharger

1fichier
Télécharger

Uploaded
Télécharger

TurboBit
Télécharger

NFO :

Afficher / Masquer le texte 77908a98ee1dc97677b7a3fd1d7b46ed » class= »text_spoiler » style= »display:none; »>S P L 2005 MULTi 720p BluRay x264-KAiOh.zone-telechargement.com.mkv
Format : Matroska
Format version : Version 2
File size : 4.58 GiB
Duration : 1h 33mn
Overall bit rate : 7 029 Kbps
Encoded date : UTC 2013-05-29 14:15:32
Writing application : mkvmerge v3.3.0 (‘Language’) built on Mar 24 2010 14:59:24
Writing library : libebml v0.8.0 + libmatroska v0.9.0

Video
ID : 1
Format : AVC
Format/Info : Advanced Video Codec
Format profile : [email protected]
Format settings, CABAC : Yes
Format settings, ReFrames : 9 frames
Codec ID : V_MPEG4/ISO/AVC
Duration : 1h 33mn
Bit rate : 6 015 Kbps
Width : 1 280 pixels
Height : 720 pixels
Display aspect ratio : 16:9
Frame rate mode : Constant
Frame rate : 23.976 fps
Color space : YUV
Chroma subsampling : 4:2:0
Bit depth : 8 bits
Scan type : Progressive
Bits/(Pixel*Frame) : 0.272
Stream size : 3.82 GiB (83%)
Title : Saat po long (2005)
Writing library : x264 core 100 r1659 57b2e56
Encoding settings : cabac=1 / ref=9 / deblock=1:-3:-3 / analyse=0x3:0x113 / me=tesa / subme=10 / psy=1 / psy_rd=1.00:0.00 / mixed_ref=1 / me_range=16 / chroma_me=1 / trellis=2 / 8x8dct=1 / cqm=0 / deadzone=21,11 / fast_pskip=0 / chroma_qp_offset=-2 / threads=12 / sliced_threads=0 / nr=0 / decimate=0 / interlaced=0 / constrained_intra=0 / bframes=6 / b_pyramid=2 / b_adapt=2 / b_bias=0 / direct=3 / weightb=1 / open_gop=1 / weightp=2 / keyint=250 / keyint_min=25 / scenecut=40 / intra_refresh=0 / rc=2pass / mbtree=0 / bitrate=6015 / ratetol=1.0 / qcomp=0.60 / qpmin=10 / qpmax=51 / qpstep=4 / cplxblur=20.0 / qblur=0.5 / ip_ratio=1.40 / pb_ratio=1.30 / aq=1:0.65
Language : Chinese
Default : No
Forced : No

Audio #1
ID : 2
Format : AC-3
Format/Info : Audio Coding 3
Mode extension : CM (complete main)
Format settings, Endianness : Big
Codec ID : A_AC3
Duration : 1h 33mn
Bit rate mode : Constant
Bit rate : 640 Kbps
Channel(s) : 6 channels
Channel positions : Front: L C R, Side: L R, LFE
Sampling rate : 48.0 KHz
Compression mode : Lossy
Stream size : 427 MiB (9%)
Title : AC3 5.1 @ 640 kbps
Language : Chinese
Default : No
Forced : No

Audio #2
ID : 3
Format : AC-3
Format/Info : Audio Coding 3
Mode extension : CM (complete main)
Format settings, Endianness : Big
Codec ID : A_AC3
Duration : 1h 33mn
Bit rate mode : Constant
Bit rate : 384 Kbps
Channel(s) : 6 channels
Channel positions : Front: L C R, Side: L R, LFE
Sampling rate : 48.0 KHz
Compression mode : Lossy
Delay relative to video : 27s 800ms
Stream size : 256 MiB (5%)
Title : AC3 5.1 @ 384 kbps
Language : French
Default : Yes
Forced : No

Text #1
ID : 4
Format : UTF-8
Codec ID : S_TEXT/UTF8
Codec ID/Info : UTF-8 Plain Text
Title : French Forced
Language : French
Default : Yes
Forced : No

Text #2
ID : 5
Format : UTF-8
Codec ID : S_TEXT/UTF8
Codec ID/Info : UTF-8 Plain Text
Title : Full French
Language : French
Default : No
Forced : No

Text #3
ID : 6
Format : UTF-8
Codec ID : S_TEXT/UTF8
Codec ID/Info : UTF-8 Plain Text
Title : Full English
Language : English
Default : No
Forced : No