Télécharger San Andreas Blu-Ray 3D

(TRUEFRENCH = Vraie voix française)

Qualité BLURAY 3D SBS | TRUEFRENCH

San Andreas

San Andreas

San Andreas

Origine du film : Américain
Réalisateur : Brad Peyton
Acteurs : Dwayne Johnson, Carla Gugino, Alexandra Daddario
Genre : Action, Aventure, Thriller
Durée : 1h54min
Date de sortie : 27 mai 2015
Année de production : 2015
Distribué par : Warner Bros. France
Note presse : San Andreas 2,8/5
Note spectateurs : San Andreas 3,3/5 (3 621)
Bande annonce :

e6ca39f75cc9c5c0e290d7583052e96d

19553200″>Cliquez-ici pour voir la bande annonce e6ca39f75cc9c5c0e290d7583052e96d »> 19553200

e6ca39f75cc9c5c0e290d7583052e96d

San Andreas

Lorsque la tristement célèbre Faille de San Andreas finit par s’ouvrir, et par provoquer un séisme de magnitude 9 en Californie, un pilote d’hélicoptère de secours en montagne et la femme dont il s’est séparé quittent Los Angeles pour San Francisco dans l’espoir de sauver leur fille unique. Alors qu’ils s’engagent dans ce dangereux périple vers le nord de l’État, pensant que le pire est bientôt derrière eux, ils ne tardent pas à comprendre que la réalité est bien plus effroyable encore…
98935″ style= »display:inline; »>

San Andreas

Format : MKV
Sous-titres : Forcé pour les passages en langue étrangère.

San Andreas

San.Andreas.2015.3D.1080P.SBS.AC3.5.1.SPRiNTER.RmixFr

(7677 Mo)

[Liens Interchangeables entre hébergeurs: 7x 1000 Mo + 1x 677 Mo]

Uptobox
Télécharger

Uplea
Télécharger

1fichier
Télécharger

Uploaded
Télécharger

Rapidgator
Télécharger

TurboBit
Télécharger

1 Lien Premium – 7.6 Go

Uptobox Premium
Télécharger

Uplea Premium
Télécharger

1fichier Premium
Télécharger

Uploaded Premium
Télécharger

TurboBit Premium
Télécharger

NFO :

Afficher / Masquer le texte f42f3d0330c3614b1d35967089350bb9″ class= »text_spoiler » style= »display:none; »>General
Complete name : San.Andreas.2015.3D.1080P.SBS.AC3.5.1.SPRiNTER.RmixFr.mkv
Format : Matroska
Format version : Version 4 / Version 2
File size : 7.50 GiB
Duration : 1h 54mn
Overall bit rate : 9 376 Kbps
Encoded date : UTC 2015-09-28 13:18:00
Writing application : mkvmerge v7.6.0 (‘Garden of Dreams’) 64bit built on Feb 8 2015 15:43:43
Writing library : libebml v1.3.1 + libmatroska v1.4.2
DURATION : 01:54:27.904000000
NUMBER_OF_FRAMES : 214622
NUMBER_OF_BYTES : 384602624
_STATISTICS_WRITING_APP : mkvmerge v7.6.0 (‘Garden of Dreams’) 64bit built on Feb 8 2015 15:43:43
_STATISTICS_WRITING_DATE_UTC : 2015-09-28 13:18:00
_STATISTICS_TAGS : BPS DURATION NUMBER_OF_FRAMES NUMBER_OF_BYTES

Video
ID : 1
Format : AVC
Format/Info : Advanced Video Codec
Format profile : [email protected]
Format settings, CABAC : Yes
Format settings, ReFrames : 5 frames
Codec ID : V_MPEG4/ISO/AVC
Duration : 1h 54mn
Bit rate : 8 928 Kbps
Width : 1 920 pixels
Height : 800 pixels
Display aspect ratio : 2.40:1
Frame rate mode : Constant
Frame rate : 23.976 fps
Color space : YUV
Chroma subsampling : 4:2:0
Bit depth : 8 bits
Scan type : Progressive
Bits/(Pixel*Frame) : 0.242
Stream size : 6.99 GiB (93%)
Writing library : x264 core 148 r2597 e86f3a1
Encoding settings : cabac=1 / ref=5 / deblock=1:0:0 / analyse=0x3:0x133 / me=umh / subme=7 / psy=1 / psy_rd=1.00:0.00 / mixed_ref=1 / me_range=16 / chroma_me=1 / trellis=1 / 8x8dct=1 / cqm=0 / deadzone=21,11 / fast_pskip=0 / chroma_qp_offset=-2 / threads=18 / lookahead_threads=3 / sliced_threads=0 / nr=0 / decimate=1 / interlaced=0 / bluray_compat=0 / constrained_intra=0 / bframes=3 / b_pyramid=2 / b_adapt=1 / b_bias=0 / direct=1 / weightb=1 / open_gop=0 / weightp=2 / keyint=250 / keyint_min=23 / scenecut=40 / intra_refresh=0 / rc_lookahead=40 / rc=2pass / mbtree=1 / bitrate=8928 / ratetol=1.0 / qcomp=0.60 / qpmin=0 / qpmax=69 / qpstep=4 / cplxblur=20.0 / qblur=0.5 / ip_ratio=1.40 / aq=1:1.00
Language : English
Default : Yes
Forced : No
DURATION : 01:54:28.654000000
NUMBER_OF_FRAMES : 164683
NUMBER_OF_BYTES : 7664162178
_STATISTICS_WRITING_APP : mkvmerge v7.6.0 (‘Garden of Dreams’) 64bit built on Feb 8 2015 15:43:43
_STATISTICS_WRITING_DATE_UTC : 2015-09-28 13:18:00
_STATISTICS_TAGS : BPS DURATION NUMBER_OF_FRAMES NUMBER_OF_BYTES

Audio
ID : 2
Format : AC-3
Format/Info : Audio Coding 3
Mode extension : CM (complete main)
Format settings, Endianness : Big
Codec ID : A_AC3
Duration : 1h 54mn
Bit rate mode : Constant
Bit rate : 448 Kbps
Channel(s) : 6 channels
Channel positions : Front: L C R, Side: L R, LFE
Sampling rate : 48.0 KHz
Bit depth : 16 bits
Compression mode : Lossy
Stream size : 367 MiB (5%)
Title : Bande AC3 5.1
Language : French
Default : Yes
Forced : Yes

Menu
00:00:00.000 : en:00:00:00.000
00:09:29.944 : en:00:09:29.944
00:18:47.209 : en:00:18:47.209
00:30:10.100 : en:00:30:10.100
00:40:08.823 : en:00:40:08.823
00:50:18.098 : en:00:50:18.098
00:59:44.498 : en:00:59:44.498
01:11:27.366 : en:01:11:27.366
01:19:43.612 : en:01:19:43.612
01:30:40.810 : en:01:30:40.810
01:39:56.490 : en:01:39:56.490
01:47:10.924 : en:01:47:10.924

Jeux Gratuit
15354131_1854970838071206_1069261547_o.png