Telecharger San Andreas [BLURAY 720p] French

Qualité BLURAY 720p | TRUEFRENCH

San Andreas

San Andreas

San Andreas

Origine du film : Américain
Réalisateur : Brad Peyton
Acteurs : Dwayne Johnson, Carla Gugino, Alexandra Daddario
Genre : Action, Aventure, Thriller
Durée : 1h54min
Date de sortie : 27 mai 2015
Année de production : 2015
Distribué par : Warner Bros. France
Note presse : San Andreas 2,8/5
Note spectateurs : San Andreas

; »>3,3/5 (3 574)
Bande annonce :

20e92eeef704fe9e7252b9a14bc780c7

19553200″>Cliquez-ici pour voir la bande annonce 20e92eeef704fe9e7252b9a14bc780c7″> 19553200

20e92eeef704fe9e7252b9a14bc780c7

San Andreas

Lorsque la tristement célèbre Faille de San Andreas finit par s’ouvrir, et par provoquer un séisme de magnitude 9 en Californie, un pilote d’hélicoptère de secours en montagne et la femme dont il s’est séparé quittent Los Angeles pour San Francisco dans l’espoir de sauver leur fille unique. Alors qu’ils s’engagent dans ce dangereux périple vers le nord de l’État, pensant que le pire est bientôt derrière eux, ils ne tardent pas à comprendre que la réalité est bien plus effroyable encore…
98688″ style= »display:inline; »>

San Andreas

Format : MKV

San Andreas


La version TRUEFRENCH:

San.Andreas.2015.TRUEFRENCH.720p.BluRay.x264-ShowFr

(4318 Mo)

[Liens Interchangeables entre hébergeurs: 4x 1000 Mo + 1x 318 Mo]

Uptobox
Télécharger

Uplea
Télécharger

1fichier
Télécharger

Uploaded
Télécharger

Rapidgator
Télécharger

TurboBit
Télécharger

1 Lien Premium – 4.2 Go

Uptobox Premium
Télécharger

Uplea Premium
Télécharger

1fichier Premium
Télécharger

Uploaded Premium
Télécharger

TurboBit Premium
Télécharger

NFO :

Afficher / Masquer le texte 6c33e434b31fdd88fe9d647be3ed3ad3″ class= »text_spoiler » style= »display:none; »>General
Unique ID : 274913873764911214526600977807762474320 (0xCED27C750E58FBA2FF14FBAE65CB4550)
Complete name : San.Andreas.2015.TRUEFRENCH.720p.BluRay.x264-ShowFr
Format : Matroska
Format version : Version 4 / Version 2
File size : 4.22 GiB
Duration : 1h 54mn
Overall bit rate : 5 274 Kbps
Encoded date : UTC 2015-09-27 15:32:27
Writing application : mkvmerge v7.2.0 (‘On Every Street’) 64bit built on Oct 7 2014 18:52:30
Writing library : Lavf56.25.101
_STATISTICS_WRITING_APP : mkvmerge v7.2.0 (‘On Every Street’) 64bit built on Oct 7 2014 18:52:30
_STATISTICS_WRITING_DATE_UT : 2015-09-27 15:32:27
_STATISTICS_TAGS : BPS DURATION NUMBER_OF_FRAMES NUMBER_OF_BYTES
DURATION : 01:54:27.904000000
NUMBER_OF_FRAMES : 214622
NUMBER_OF_BYTES : 384602624

Video
ID : 2
Format : AVC
Format/Info : Advanced Video Codec
Format profile : [email protected]
Format settings, CABAC : Yes
Format settings, ReFrames : 5 frames
Codec ID : V_MPEG4/ISO/AVC
Duration : 1h 54mn
Bit rate : 4 825 Kbps
Width : 1 280 pixels
Height : 536 pixels
Display aspect ratio : 2.40:1
Frame rate mode : Constant
Frame rate : 23.976 fps
Color space : YUV
Chroma subsampling : 4:2:0
Bit depth : 8 bits
Scan type : Progressive
Bits/(Pixel*Frame) : 0.293
Stream size : 3.78 GiB (90%)
Title : San.Andreas.2015.720p.BluRay.Sparks (Provient d’une release scéne)
Writing library : x264 core 148 r2597 e86f3a1
Encoding settings : cabac=1 / ref=5 / deblock=1:0:0 / analyse=0x3:0x133 / me=umh / subme=7 / psy=1 / psy_rd=1.00:0.00 / mixed_ref=1 / me_range=16 / chroma_me=1 / trellis=1 / 8x8dct=1 / cqm=0 / deadzone=21,11 / fast_pskip=0 / chroma_qp_offset=-2 / threads=17 / lookahead_threads=2 / sliced_threads=0 / nr=0 / decimate=1 / interlaced=0 / bluray_compat=0 / constrained_intra=0 / bframes=3 / b_pyramid=2 / b_adapt=1 / b_bias=0 / direct=1 / weightb=1 / open_gop=0 / weightp=2 / keyint=250 / keyint_min=23 / scenecut=40 / intra_refresh=0 / rc_lookahead=40 / rc=2pass / mbtree=1 / bitrate=4825 / ratetol=1.0 / qcomp=0.60 / qpmin=0 / qpmax=69 / qpstep=4 / cplxblur=20.0 / qblur=0.5 / ip_ratio=1.40 / aq=1:1.00
Default : Yes
Forced : Yes

Audio
ID : 1
Format : AC-3
Format/Info : Audio Coding 3
Mode extension : CM (complete main)
Format settings, Endianness : Big
Codec ID : A_AC3
Duration : 1h 54mn
Bit rate mode : Constant
Bit rate : 448 Kbps
Channel(s) : 6 channels
Channel positions : Front: L C R, Side: L R, LFE
Sampling rate : 48.0 KHz
Compression mode : Lossy
Delay relative to video : -251ms
Stream size : 367 MiB (8%)
Language : French
Default : Yes
Forced : No
_STATISTICS_WRITING_APP : mkvmerge v7.2.0 (‘On Every Street’) 64bit built on Oct 7 2014 18:52:30
_STATISTICS_WRITING_DATE_UT : 2015-09-27 15:32:27
_STATISTICS_TAGS : BPS DURATION NUMBER_OF_FRAMES NUMBER_OF_BYTES
DURATION : 01:54:28.540000000
NUMBER_OF_FRAMES : 164680
NUMBER_OF_BYTES : 4142189763

Text
ID : 3
Format : UTF-8
Codec ID : S_TEXT/UTF8
Codec ID/Info : UTF-8 Plain Text
Title : San.Andreas.2015.FR.FORCED (Provient d’une release scéne)
Language : French
Default : Yes
Forced : Yes

La version VFQ:

San.Andreas.2015.MULTi.VFQ.BluRay.720p.x264.AC3-KiKi

(5372 Mo)

[Liens Interchangeables entre hébergeurs: 5x 1000 Mo + 1x 372 Mo]

Uptobox
Télécharger

Uplea
Télécharger

1fichier
Télécharger

Uploaded
Télécharger

Rapidgator
Télécharger

TurboBit
Télécharger

1 Lien Premium – 5.2 Go

Uptobox Premium
Télécharger

Uplea Premium
Télécharger

1fichier Premium
Télécharger

Uploaded Premium
Télécharger

TurboBit Premium
Télécharger

NFO :

Afficher / Masquer le texte eee0ca5b74e78941b0c11b68b6cfa502″ class= »text_spoiler » style= »display:none; »>General
Unique ID : 175879544232441792339572025228936496775 (0x84512B0791AA8706B5B9EB943EBE4687)
Complete name : San.Andreas.2015.MULTi.VFQ.BluRay.720p.x264.AC3-KiKi.mkv
Format : Matroska
Format version : Version 4 / Version 2
File size : 5.25 GiB
Duration : 1h 54mn
Overall bit rate : 6 561 Kbps
Encoded date : UTC 2015-09-26 13:53:16
Writing application : mkvmerge v8.3.0 (‘Over the Horizon’) 64bit
Writing library : libebml v1.3.1 + libmatroska v1.4.2
DURATION : 01:54:26.880000000
NUMBER_OF_FRAMES : 214590
NUMBER_OF_BYTES : 164805120
_STATISTICS_WRITING_APP : mkvmerge v8.3.0 (‘Over the Horizon’) 64bit
_STATISTICS_WRITING_DATE_UTC : 2015-09-26 13:53:16
_STATISTICS_TAGS : BPS DURATION NUMBER_OF_FRAMES NUMBER_OF_BYTES

Video
ID : 1
Format : AVC
Format/Info : Advanced Video Codec
Format profile : [email protected]
Format settings, CABAC : Yes
Format settings, ReFrames : 12 frames
Codec ID : V_MPEG4/ISO/AVC
Duration : 1h 54mn
Bit rate : 5 985 Kbps
Width : 1 280 pixels
Height : 534 pixels
Display aspect ratio : 2.40:1
Frame rate mode : Constant
Frame rate : 23.976 fps
Color space : YUV
Chroma subsampling : 4:2:0
Bit depth : 8 bits
Scan type : Progressive
Bits/(Pixel*Frame) : 0.365
Stream size : 4.68 GiB (89%)
Writing library : x264 core 142 r2431+42 c69a006 tMod [[email protected]:2:0 X86_64]
Encoding settings : cabac=1 / ref=12 / deblock=1:0:0 / analyse=0x3:0x113 / me=umh / subme=10 / psy=1 / fade_compensate=0.00 / psy_rd=1.05:0.10 / mixed_ref=1 / me_range=32 / chroma_me=1 / trellis=2 / 8x8dct=1 / cqm=0 / deadzone=21,11 / fast_pskip=0 / chroma_qp_offset=-2 / threads=12 / lookahead_threads=1 / sliced_threads=0 / nr=0 / decimate=1 / interlaced=0 / bluray_compat=0 / constrained_intra=0 / fgo=0 / bframes=6 / b_pyramid=2 / b_adapt=2 / b_bias=0 / direct=3 / weightb=1 / open_gop=0 / weightp=2 / keyint=250 / keyint_min=23 / scenecut=40 / intra_refresh=0 / rc=2pass / mbtree=0 / bitrate=5985 / ratetol=1.0 / qcomp=0.70 / qpmin=0:0:0 / qpmax=69:69:69 / qpstep=4 / cplxblur=20.0 / qblur=0.5 / ip_ratio=1.40 / pb_ratio=1.30 / aq=2:1.00 / aq-sensitivity=10.00 / aq-factor=1.00:1.00:1.00 / aq2=0 / aq3=0
Language : English
Default : Yes
Forced : No
DURATION : 01:54:28.612000000
NUMBER_OF_FRAMES : 164682
NUMBER_OF_BYTES : 5137086993
_STATISTICS_WRITING_APP : mkvmerge v8.3.0 (‘Over the Horizon’) 64bit
_STATISTICS_WRITING_DATE_UTC : 2015-09-26 13:53:16
_STATISTICS_TAGS : BPS DURATION NUMBER_OF_FRAMES NUMBER_OF_BYTES

Audio #1
ID : 2
Format : AC-3
Format/Info : Audio Coding 3
Mode extension : CM (complete main)
Format settings, Endianness : Big
Codec ID : A_AC3
Duration : 1h 54mn
Bit rate mode : Constant
Bit rate : 384 Kbps
Channel(s) : 6 channels
Channel positions : Front: L C R, Side: L R, LFE
Sampling rate : 48.0 KHz
Bit depth : 16 bits
Compression mode : Lossy
Stream size : 314 MiB (6%)
Language : English
Default : Yes
Forced : No

Audio #2
ID : 3
Format : AC-3
Format/Info : Audio Coding 3
Mode extension : CM (complete main)
Format settings, Endianness : Big
Codec ID : A_AC3
Duration : 1h 54mn
Bit rate mode : Constant
Bit rate : 192 Kbps
Channel(s) : 2 channels
Channel positions : Front: L R
Sampling rate : 48.0 KHz
Bit depth : 16 bits
Compression mode : Lossy
Delay relative to video : 800ms
Stream size : 157 MiB (3%)
Title : VFQ 192 kbps
Language : French
Default : No
Forced : No

SOURCE VIDEO: San.Andreas.2015.BluRay.720p.x264.AC3-MTeam.mkv
SOURCE AUDIO: San.Andreas.2015.1080p.MULTI.VFQ.WEB-DL.DD5.1.H264-SVR.mkv