Telecharger Sauvez le Neptune [DVDRiP] French

(TRUEFRENCH = Vraie voix française)

Qualité DVDRiP mkv | MULTiLANGUES (Avec TRUEFRENCH)

Sauvez le Neptune

Sauvez le Neptune

Origine du film : Américain
Réalisateur : David Greene
Acteurs : Charlton Heston, David Carradine, Stacy Keach
Genre : Drame
Durée : 1h51min
Année de production : 1978
Titre Original : Gray Lady Down
Note spectateurs : Sauvez le Neptune

; »>2,8/5 (10)

Sauvez le Neptune

Un sous-marin atomique américain, le Neptune, coule après avoir percuter un cargot. Le capitaine Blanchard et son équipage sont toujours vivants mais n’ont que 48 heures d’oxygène. Une durée qui ne laisse pas beaucoup de temps au ministère de la Marine pour sauver l’équipage de Neptune…
101629″ style= »display:inline; »>

Sauvez le Neptune

Format : MKV

Sauvez le Neptune

Sauvez le Neptune 1978 MULTI.DVDRip.x264.AC3-HuSh

(1370 Mo)

Uptobox
Télécharger

Uploaded
Télécharger

TurboBit
Télécharger

Rapidgator
Télécharger

Uplea
Télécharger

1fichier
Télécharger

NFO :

Afficher / Masquer le texte 195d4ae728b5b761c7d3209a530d5136″ class= »text_spoiler » style= »display:none; »>■General

Unique ID : 174366057516673726166851577381054256456 (0x832DAE5F8F0AA0DD8245268DC6171548)

Complete name : G:TorrentSauvez.Le.Neptune.1978.MULTI.DVDRip.x264.AC3-HuShSauvez.Le.Neptune.1978.MULTI.DVDRip.x264.AC3-HuSh.mkv

Format : Matroska

Format version : Version 4 / Version 2

File size : 1.37 GiB

Duration : 1h 45mn

Overall bit rate mode : Variable

Overall bit rate : 1 849 Kbps

Movie name : Sauvez.Le.Neptune.1978.MULTI.DVDRip.x264.AC3-HuSh

Encoded date : UTC 2013-10-03 11:37:48

Writing application : mkvmerge v6.3.0 (‘You can’t stop me!’) built on Jun 28 2013 20:09:41

Writing library : libebml v1.3.0 + libmatroska v1.4.0

Video

ID : 1

Format : AVC

Format/Info : Advanced Video Codec

Format profile : [email protected]

Format settings, CABAC : Yes

Format settings, ReFrames : 8 frames

Codec ID : V_MPEG4/ISO/AVC

Duration : 1h 45mn

Bit rate mode : Variable

Bit rate : 1 079 Kbps

Maximum bit rate : 17.5 Mbps

Width : 720 pixels

Height : 304 pixels

Display aspect ratio : 2.35:1

Frame rate mode : Constant

Frame rate : 25.000 fps

Color space : YUV

Chroma subsampling : 4:2:0

Bit depth : 8 bits

Scan type : Progressive

Bits/(Pixel*Frame) : 0.197

Stream size : 792 MiB (56%)

Writing library : x264 core 135 r2345

Encoding settings : cabac=1 / ref=8 / deblock=1:-1:-1 / analyse=0x3:0x133 / me=umh / subme=9 / psy=1 / psy_rd=1.00:0.00 / mixed_ref=1 / me_range=32 / chroma_me=1 / trellis=2 / 8x8dct=1 / cqm=0 / deadzone=21,11 / fast_pskip=0 / chroma_qp_offset=-2 / threads=3 / lookahead_threads=1 / sliced_threads=0 / nr=0 / decimate=1 / interlaced=0 / bluray_compat=0 / constrained_intra=0 / bframes=3 / b_pyramid=2 / b_adapt=2 / b_bias=0 / direct=3 / weightb=1 / open_gop=0 / weightp=2 / keyint=250 / keyint_min=25 / scenecut=40 / intra_refresh=0 / rc_lookahead=60 / rc=2pass / mbtree=1 / bitrate=1079 / ratetol=1.0 / qcomp=0.60 / qpmin=10 / qpmax=69 / qpstep=4 / cplxblur=20.0 / qblur=0.5 / vbv_maxrate=17500 / vbv_bufsize=17500 / nal_hrd=vbr / ip_ratio=1.40 / aq=1:1.00

Default : Yes

Forced : No

Audio #1

ID : 2

Format : AC-3

Format/Info : Audio Coding 3

Mode extension : CM (complete main)

Format settings, Endianness : Big

Codec ID : A_AC3

Duration : 1h 45mn

Bit rate mode : Constant

Bit rate : 384 Kbps

Channel(s) : 2 channels

Channel positions : Front: L R

Sampling rate : 48.0 KHz

Compression mode : Lossy

Stream size : 291 MiB (21%)

Title : Franτais (Stereo AC3 @ 384 Kbps)

Language : French

Default : Yes

Forced : No

Audio #2

ID : 3

Format : AC-3

Format/Info : Audio Coding 3

Mode extension : CM (complete main)

Format settings, Endianness : Big

Codec ID : A_AC3

Duration : 1h 45mn

Bit rate mode : Constant

Bit rate : 384 Kbps

Channel(s) : 2 channels

Channel positions : Front: L R

Sampling rate : 48.0 KHz

Compression mode : Lossy

Stream size : 291 MiB (21%)

Title : Anglais (Stereo AC3 @ 384 Kbps)

Language : English

Default : No

Forced : No

Text #1

ID : 4

Format : UTF-8

Codec ID : S_TEXT/UTF8

Codec ID/Info : UTF-8 Plain Text

Title : Franτais

Language : French

Default : No

Forced : No

Text #2

ID : 5

Format : UTF-8

Codec ID : S_TEXT/UTF8

Codec ID/Info : UTF-8 Plain Text

Title : Franτais forcés

Language : French

Default : Yes

Forced : Yes