Telecharger Scenic Route [BLURAY 720p] French

(TRUEFRENCH = Vraie voix française)

BLURAY 720p | TRUEFRENCH

Scenic Route

Scenic Route

Scenic Route

Origine du film : Américain
Réalisateur : Kevin Goetz
Acteurs : Josh Duhamel, Dan Fogler, Peter Michael Goetz
Genre : Drame, Thriller
Durée : 1h29min
Année de production : 2013
Note spectateurs : Scenic Route

; »>3,4/5 (87)
Bande annonce :

36d903d283c913aeae4699c74dcbc29b

19536961″>Cliquez-ici pour voir la bande annonce 36d903d283c913aeae4699c74dcbc29b »> 19536961

36d903d283c913aeae4699c74dcbc29b

Scenic Route

Mitchell et Carter, deux amis de longue date, se retrouvent en panne le long d’une route isolée en plein désert. Au fil des heures les tensions grandissent et finissent par exploser de manière assez brutale.
58171″ style= »display:inline; »>

Scenic Route

Qualité : BLURAY 720p
Format : MKV
Langue : Français
Nombre de fichiers : 4 Fichiers
Taille des fichiers : 1000 Mo + 777 Mo

Scenic Route

Ps: Les liens sont interchangeables, prenez une partie de chaque hébergeur pour télécharger plusieurs fichiers en même temps.

Scenic.Route.2014.FRENCH.720p.BluRay.AC3.x264-CNF30 ( 3777 Mo)

Uptobox
Télécharger

Uplea
Télécharger

1fichier
Télécharger

Uploaded
Télécharger

Rapidgator
Télécharger

TurboBit
Télécharger

1 Lien Premium – 3.7 Go

Uptobox Premium
Télécharger

Uplea Premium
Télécharger

1fichier Premium
Télécharger

Uploaded Premium
Télécharger

TurboBit Premium
Télécharger

NFO :

Afficher / Masquer le texte b91e5e1ff78a79f4051b4367fb859722″ class= »text_spoiler » style= »display:none; »>ideo
ID : 1
Format : AVC
Format/Info : Advanced Video Codec
Format profile : [email protected]
Format settings, CABAC : Yes
Format settings, ReFrames : 5 frames
Codec ID : V_MPEG4/ISO/AVC
Duration : 1h 26mn
Bit rate : 5 738 Kbps
Width : 1 280 pixels
Height : 688 pixels
Display aspect ratio : 1.85:1
Frame rate : 23.976 fps
Color space : YUV
Chroma subsampling : 4:2:0
Bit depth : 8 bits
Scan type : Progressive
Bits/(Pixel*Frame) : 0.272
Stream size : 3.38 GiB (92%)
Writing library : x264 core 133 r2334 a3ac64b
Encoding settings : cabac=1 / ref=5 / deblock=1:0:0 / analyse=0x3:0x133 / me=umh / subme=7 / psy=1 / psy_rd=1.00:0.00 / mixed_ref=1 / me_range=16 / chroma_me=1 / trellis=1 / 8x8dct=1 / cqm=0 / deadzone=21,11 / fast_pskip=0 / chroma_qp_offset=-2 / threads=12 / lookahead_threads=2 / sliced_threads=0 / nr=0 / decimate=1 / interlaced=0 / bluray_compat=0 / constrained_intra=0 / bframes=3 / b_pyramid=2 / b_adapt=2 / b_bias=0 / direct=3 / weightb=1 / open_gop=0 / weightp=2 / keyint=240 / keyint_min=23 / scenecut=40 / intra_refresh=0 / rc_lookahead=50 / rc=2pass / mbtree=1 / bitrate=5738 / ratetol=1.0 / qcomp=0.60 / qpmin=0 / qpmax=69 / qpstep=4 / cplxblur=20.0 / qblur=0.5 / ip_ratio=1.40 / aq=1:1.00
Language : French
Default : Yes
Forced : No

Audio
ID : 2
Format : AC-3
Format/Info : Audio Coding 3
Mode extension : CM (complete main)
Format settings, Endianness : Big
Codec ID : A_AC3
Duration : 1h 26mn
Bit rate mode : Constant
Bit rate : 384 Kbps
Channel(s) : 6 channels
Channel positions : Front: L C R, Side: L R, LFE
Sampling rate : 48.0 KHz
Bit depth : 16 bits
Compression mode : Lossy
Delay relative to video : 12s 200ms
Stream size : 237 MiB (6%)
Title : French VFI
Language : French
Default : Yes
Forced : No

Jeux Gratuit
15354131_1854970838071206_1069261547_o.png